Anonymous, доброй ночи, присоединяйтесь к нам в Telegram!, здесь всегда актуальный адрес сайта, оперативная поддержка и многое другое!

>

5.6

iTunes

7.4

iTunes

7.9

MVO

1

7.7

1 сезон

6.8

iTunes

7.3

1 сезон

13

6.7

1 сезон

8.3

RePack

30

PREMIUM

pack

9.9

Лицензия

ВАЖНО

ИГРА 18+

pack

7.3

RePack

MK11

7.7

RePack

jed

7.8

RePack

fifa19

8.5

RePack

RDR2

RePack

NEED FOR SPEED™ PAYBACK

4 сезон

9 сезон

Бесстыжие 9 сезон

Все сериалы

все сериалы на PB.wtf

RePack

FAR CRY 5

Anonymous, доброй ночи, мы катастрофически не успеваем собрать деньги на оплату серверов, помогите нам пожалуйста 5,10,15р., для нас важна любая помощь . В качестве благодарности мы отключим Вам всю рекламу на сайте (укажите свой ник в строку Ваше имя)!

×
  
Magnet ссылка

Родина / Чужой среди своих / Homeland / Сезон: 7 / Серии: 1-12 из 12 (Лесли Линка Глаттер, Майкл Куэста, Дэниэл Эттиэс) [2018, триллер, драма, детектив, WEB-DLRip] MVO [Амедиа] pb.wtf

Родина через торрент pb.wtf

Размер: 8.15 GB | Добавлен: 3 года 5 мес. назад | Торрент скачан:92 раза
Смотреть онлайн Родина | Скачать    Ребята, помогите собрать деньги на оплату серверов!!!

12-02-2018 20:04 Родина Скачать торрент  


Родина / Чужой среди своих / Homeland
Год выпуска: 2018
Страна: США
Жанр: триллер, драма, детектив
Продолжительность: ~ 00:43:00
Перевод: Профессиональный многоголосый | Амедиа
Субтитры: Русские, английские

Режиссер: Лесли Линка Глаттер, Майкл Куэста, Дэниэл Эттиэс

rating

В ролях:

Клэр Дэйнс, Дэмиэн Льюис, Мэнди Пэтинкин, Морена Баккарин, Дэвид Хэрвуд, Руперт Френд, Джексон Пэйс, Морган Сэйлор, Ф. Мюррэй Абрахам, Диего Клаттенхофф

Описание:

Противостояние главного террориста Америки и блондинки из ЦРУ закончено. Но это еще не конец. Броуди убит, Соул уволен из ЦРУ, а Кэрри получила новое задание и отправляется в одну из самых горячих точек Ближнего Востока. Любовь к родине и чувство долга против экстремизма и террора.

Качество: WEB-DLRip
Формат: AVI

Видео: XviD, ~ 1500 Кбит/с, 720x400
Аудио#1: Русский (MP3, 2 ch, 128 Кбит/с)
Аудио#2: английский (MP3, 2 ch, 128 Кбит/с)
скриншот  скриншот  скриншот  

Общее
Полное имя : E:\Родина (сезон 7) Homeland (2018) WEB-DLRip - Amedia\Homeland.S07E01.WEB-DLRip.Rus.Eng.DV.Amedia.avi
Формат : AVI
Формат/Информация : Audio Video Interleave
Размер файла : 755 Мбайт
Продолжительность : 59 м. 55 с.
Общий поток : 1761 Кбит/сек
Название фильма : Homeland.S07E01.WEB-DLRip.Rus.Eng.DV.Amedia / NNM-Club
Программа кодирования : VirtualDubModRus 1.5.10.2 (build 2542/release)
Библиотека кодирования : VirtualDubMod build 2542/release

Видео
Идентификатор : 0
Формат : MPEG-4 Visual
Профиль формата : Advanced Simple@L5
Настройки формата : BVOP2
Параметр BVOP формата : 2
Параметр QPel формата : Нет
Параметр GMC формата : Без точки перехода
Параметр матрицы формата : Default (H.263)
Идентификатор кодека : XVID
Идентификатор кодека/Подсказка : XviD
Продолжительность : 59 м. 55 с.
Битрейт : 1425 Кбит/сек
Ширина : 720 пикселей
Высота : 400 пикселей
Соотношение сторон : 16:9
Частота кадров : 23,976 (24000/1001) кадра/сек
Цветовое пространство : YUV
Субдискретизация насыщенности : 4:2:0
Битовая глубина : 8 бит
Тип развёртки : Прогрессивная
Метод сжатия : С потерями
Бит/(Пиксели*Кадры) : 0.206
Размер потока : 611 Мбайт (81%)
Заголовок : Rip by DriverV / NNM-Club
Библиотека кодирования : XviD 67

Аудио #1
Идентификатор : 1
Формат : MPEG Audio
Версия формата : Version 1
Профиль формата : Layer 3
Настройки формата : Joint stereo / MS Stereo
Идентификатор кодека : 55
Идентификатор кодека/Подсказка : MP3
Продолжительность : 59 м. 55 с.
Вид битрейта : Постоянный
Битрейт : 128 Кбит/сек
Каналы : 2 канала
Частота : 48,0 КГц
Метод сжатия : С потерями
Размер потока : 54,9 Мбайт (7%)
Выравнивание : Соединение по промежуткам

Аудио #2
Идентификатор : 2
Формат : MPEG Audio
Версия формата : Version 1
Профиль формата : Layer 3
Настройки формата : Joint stereo / MS Stereo
Идентификатор кодека : 55
Идентификатор кодека/Подсказка : MP3
Продолжительность : 59 м. 55 с.
Вид битрейта : Постоянный
Битрейт : 128 Кбит/сек
Каналы : 2 канала
Частота : 48,0 КГц
Метод сжатия : С потерями
Размер потока : 54,9 Мбайт (7%)
Выравнивание : Соединение по промежуткам

Когда раздача ведётся путём добавления новых серий, при каждом добавлении создётся новый торрент. Чтобы начать докачку новой серии, пользователям необходимо сделать следующее:
(1) остановить скачивание,
(2) удалить старый торрент у себя из клиента (старые серии удалять не надо),
(3) скачать новый торрент и запустить его у себя в клиенте вместо старого, при этом указать клиенту путь в старую папку, куда и должно происходить скачивание новых серий.
Ваш клиент при этом должен произвести хеширование (проверку) старой папки (если не производит сам - помогите ему сделать это), и будет докачивать только те серии, которых у вас ещё нет. Старые серии при этом не удаляются, а продолжают раздаваться!
Eсли вы уже удалили старые серии, то предотвратить повторную закачку старых серий можно, отжав галочку в соответсвующих местах при запуске нового торрента. По возможности, желательно не удалять старые серии как можно дольше, чтобы релизер не столько продолжал раздавать старые серии, а смог сконцентрироваться на новых.
pb.wtf



Скачать Родина через торрент http://img12.lostpic.net/2018/02/11/05df8fb477662a09b81794b20451d855.jpg Скачать, смотреть онлайн Родина бесплантно в хорошем качестве Описание: Противостояние главного террориста Америки и блондинки из ЦРУ закончено. Но это еще не конец. Броуди убит, Соул уволен из ЦРУ, а ... 8 10 9
Торрент: Зарегистрирован [2018-05-02 03:19] · скачан: 92 раз
Статус: √ проверено
Размер: 8.15 GB
Как cкачать? Как скачать Родина через торрент | UTorrent

% Раздел Тема Автор DL S | L
Родина / Чужой среди своих / Homeland [ 8.06 GB ] Родина / Чужой среди своих / Homeland / Сезон: 7 / Серии: 1-12 из 12 [2018 WEB-DLRip] MVO [Lostfilm] bober100 Скачать
1 | 0
Родина / Чужой среди своих / Homeland [ 7.7 GB ] Родина / Чужой среди своих / Homeland / Сезон: 7 / Серии: 1-12 из 12 [2018 WEB-DLRip] DVO [SunshineStudio] bober100 Скачать
1 | 0
Родина / Чужой среди своих / Homeland [ 13.63 GB ] Родина / Чужой среди своих / Homeland / Сезон: 7 / Серии: 1-12 из 12 [2018 WEB-DL 720p] DVO [SunshineStudio] bober100 Скачать
1 | 0
Родина / Чужой среди своих / Homeland [ 53.65 GB ] Родина / Чужой среди своих / Homeland / Сезон: 7 / Серии: 1-12 из 12 [2018 WEB-DL 1080p] MVO [Амедиа] bober100 Скачать
1 | 0
Родина / Чужой среди своих / Homeland [ 16.89 GB ] Родина / Чужой среди своих / Homeland / Сезон: 7 / Серии: 1-12 из 12 [2018 WEB-DL 720p] MVO [Amedia] bober100 Скачать
1 | 0
Родина / Чужой среди своих / Homeland [ 7.16 GB ] Родина / Чужой среди своих / Homeland / Сезон: 7 / Серии: 1-12 из 12 [2018 WEB-DLRip] MVO [Hamsterstudio] bober100 Скачать
1 | 0

28-11-2019 20:33  

Отключить всю рекламу на сайте

09-11-2018 09:40 Родина Скачать торрент  

Спасиьоpb.wtf



    Дорогой пользователь! Огромная просьба, поблагодарите релизера, оцените раздачу и оставьте свои комментарий, если Вы скачали Родина через торрент бесплатно!
    Комментировать посты могут только пользователи прошедшие не сложную регистрацию
    Показать сообщения:    

    Родина через торрент
    Скачать бесплатно Родина
    Родина скачать торрент
    Родина смотреть онлайн
    Cкачать фильм Родина бесплатно
    Родина скачать торрент в хорошем качестве
    Родина смотреть онлайн бесплатно в хорошем качестве


    Вы не можете начинать темы
    Вы не можете отвечать на сообщения
    Вы не можете редактировать свои сообщения
    Вы не можете удалять свои сообщения
    Вы не можете голосовать в опросах
    Вы не можете прикреплять файлы к сообщениям
    Вы можете скачивать файлы