Ссылка на приватное зеркало нашего сайта всего за 1$. Внимание количество ограничено!!!

2 сезон

iTunes

1 сезон

1

2 сезон

2 сезон

iTunes

1 сезон

RePack

30

Ultimate

ВАЖНО

ИГРА 18+

pack

RePack

MK11
pack

Забери бонус

RePack

jed

!!Акция!!

Alien_Rage

RePack

fifa19

RePack

Assassins Creed: Odyssey

RePack

NEED FOR SPEED™ PAYBACK

4 сезон

9 сезон

Бесстыжие 9 сезон

Все сериалы

все сериалы на PB.wtf

RePack

FAR CRY 5
  

Баскетс / Олух / Baskets / Сезон: 3 / Серии: 1-10 из 10 (Джонатан Крисел) [2018, Комедия, WEBRip] MVO [Jaskier] pb.wtf

Баскетс через торрент pb.wtf

Размер: 2.94 GB | Добавлен: 2 года 6 мес. назад | Торрент скачан:5 раз
Скачать  

13-02-2018 08:22 Баскетс Скачать торрент  

Баскетс / Олух / BasketsГод выпуска: 2018
Страна: США
Жанр: Комедия
Продолжительность: 00:25:00
Перевод: Профессиональный (многоголосый) | Jaskier
Субтитры: отсутствуют

Режиссер: Джонатан Крисел

rating

В ролях:

Зак Галифианакис, Марта Келли, Луи Андерсон, Сабина Щубба, Эрнест Адамс, Малия Пайлс, Эллен Д. Уильямс, Джулия Грюнберг, Том Проктер, Крис МакЛафлин, Дэн Гилвзан, Роки МакДональд, Майлз Андерсон

Описание:

Главный герой этого сериала - Чип Баскетс. Этот человек отличается от всех других людей. Он всегда мечтал стать просто уважаемым клоуном, когда все остальные хотели быть бизнесменами и актерами. Ради своей мечты главный герой отправился во Францию, где посещал уроки профессиональных клоунов. Однако жизнь в Париже оказалась весьма непростой. Чтобы прокормить себя, Чипу приходится участвовать в местном родео. Однако заработка хватало едва ли, чтобы сводить концы с концами. Рано или поздно предстоит вернуться домой. О жизни столь необычного человека продолжится рассказ во втором сезоне сериала "Баскетс".

Качество: WEBRip
Формат: AVI

Видео: XviD, ~ 1500 kbps, 720x400 (16:9), 23.976 fps
Аудио#1: MP3, 48,0 КГц, 2 ch, 128 kbps - Rus
Аудио#2: MP3, 48,0 КГц, 2 ch, 128 kbps - Eng
скриншот   скриншот   скриншот  

Общее
Полное имя : E:\торреннты\Baskets Season 3 (WEBRip l 400p l Jaskier)\Baskets.S03E01.WEBRip.Jaskier.avi
Формат : AVI
Формат/Информация : Audio Video Interleave
Размер файла : 297 Мбайт
Продолжительность : 23 м. 28 с.
Общий поток : 1769 Кбит/сек
Программа кодирования : VirtualDubMod 1.5.10.3 | www.virtualdub-fr.org || (build 2550/release)
Библиотека кодирования : VirtualDubMod build 2550/release

Видео
Идентификатор : 0
Формат : MPEG-4 Visual
Профиль формата : Advanced Simple@L5
Настройки формата : BVOP2
Параметр BVOP формата : 2
Параметр QPel формата : Нет
Параметр GMC формата : Без точки перехода
Параметр матрицы формата : Default (MPEG)
Идентификатор кодека : XVID
Идентификатор кодека/Подсказка : XviD
Продолжительность : 23 м. 28 с.
Битрейт : 1499 Кбит/сек
Ширина : 720 пикселей
Высота : 400 пикселей
Соотношение сторон : 16:9
Частота кадров : 23,976 (24000/1001) кадра/сек
Цветовое пространство : YUV
Субдискретизация насыщенности : 4:2:0
Битовая глубина : 8 бит
Тип развёртки : Прогрессивная
Метод сжатия : С потерями
Бит/(Пиксели*Кадры) : 0.217
Размер потока : 252 Мбайт (85%)
Библиотека кодирования : XviD 1.2.1 (UTC 2008-12-04)

Аудио #1
Идентификатор : 1
Формат : MPEG Audio
Версия формата : Version 1
Профиль формата : Layer 3
Настройки формата : Joint stereo / MS Stereo
Идентификатор кодека : 55
Идентификатор кодека/Подсказка : MP3
Продолжительность : 23 м. 28 с.
Вид битрейта : Постоянный
Битрейт : 128 Кбит/сек
Каналы : 2 канала
Частота : 48,0 КГц
Частота кадров : 41,667 кадра/сек (1152 SPF)
Метод сжатия : С потерями
Размер потока : 21,5 Мбайт (7%)
Выравнивание : Соединение по промежуткам
Продолжительность промежутка : 42 мс. (1,00 видеокадр)
Время предзагрузки промежутка : 504 мс.
Библиотека кодирования : LAME3.100
Настройки программы : -m j -V 4 -q 3 -lowpass 17 -b 128

Аудио #2
Идентификатор : 2
Формат : MPEG Audio
Версия формата : Version 1
Профиль формата : Layer 3
Настройки формата : Joint stereo / MS Stereo
Идентификатор кодека : 55
Идентификатор кодека/Подсказка : MP3
Продолжительность : 23 м. 28 с.
Вид битрейта : Постоянный
Битрейт : 128 Кбит/сек
Каналы : 2 канала
Частота : 48,0 КГц
Частота кадров : 41,667 кадра/сек (1152 SPF)
Метод сжатия : С потерями
Размер потока : 21,5 Мбайт (7%)
Выравнивание : Соединение по промежуткам
Продолжительность промежутка : 42 мс. (1,00 видеокадр)
Время предзагрузки промежутка : 504 мс.
Библиотека кодирования : LAME3.100
Настройки программы : -m j -V 4 -q 3 -lowpass 17 -b 128

Когда раздача ведётся путём добавления новых серий, при каждом добавлении создётся новый торрент. Чтобы начать докачку новой серии, пользователям необходимо сделать следующее:
(1) остановить скачивание,
(2) удалить старый торрент у себя из клиента (старые серии удалять не надо),
(3) скачать новый торрент и запустить его у себя в клиенте вместо старого, при этом указать клиенту путь в старую папку, куда и должно происходить скачивание новых серий.
Ваш клиент при этом должен произвести хеширование (проверку) старой папки (если не производит сам - помогите ему сделать это), и будет докачивать только те серии, которых у вас ещё нет. Старые серии при этом не удаляются, а продолжают раздаваться!
Eсли вы уже удалили старые серии, то предотвратить повторную закачку старых серий можно, отжав галочку в соответсвующих местах при запуске нового торрента. По возможности, желательно не удалять старые серии как можно дольше, чтобы релизер не столько продолжал раздавать старые серии, а смог сконцентрироваться на новых.
pb.wtf



Скачать Баскетс через торрент http://i99.fastpic.ru/big/2018/0205/06/6f89e07811f502e8d1629574c979f906.jpg Скачать фильм Баскетс через торрент бесплантно в хорошем качестве Описание: Главный герой этого сериала - Чип Баскетс. Этот человек отличается от всех других людей. Он всегда мечтал стать просто уважаемым ... 10 10 2
Торрент: Зарегистрирован [2018-04-29 07:20] · скачан: 5 раз
Статус: √ проверено
Размер: 2.94 GB
Как cкачать? Как скачать Баскетс через торрент | qTorrent

% Раздел Тема Автор DL S | L
Зарубежные сериалы [ 2.05 GB ] Баскетс / Олух / Baskets / Сезон: 3 / Серии: 1-7 из 10 [2018 WEB-DLRip] [MVO] killermax2013 Скачать
1 | 0
Зарубежные сериалы [ 6.94 GB ] Баскетс / Олух / Baskets / Сезон: 3 / Серии: 1-10 из 10 [2018 WEBRip 720p] MVO [Jaskier] bober100 Скачать
1 | 0

28-11-2019 20:33  

Отключить всю рекламу на сайте

    Дорогой пользователь! Огромная просьба, поблагодарите релизера, оцените раздачу и оставьте свои комментарий, если Вы скачали Баскетс через торрент бесплатно! Внесите свою лепту в развитие PiratBit!
    Комментировать посты могут только пользователи прошедшие не сложную регистрацию
    Показать сообщения:    

    Баскетс через торрент
    Скачать бесплатно Баскетс
    Баскетс скачать торрент
    Баскетс смотреть онлайн
    Cкачать фильм Баскетс бесплатно
    Баскетс скачать торрент в хорошем качестве
    Баскетс смотреть онлайн бесплатно в хорошем качестве


    Вы не можете начинать темы
    Вы не можете отвечать на сообщения
    Вы не можете редактировать свои сообщения
    Вы не можете удалять свои сообщения
    Вы не можете голосовать в опросах
    Вы не можете прикреплять файлы к сообщениям
    Вы можете скачивать файлы