Ссылка на приватное зеркало нашего сайта всего за 1$. Внимание количество ограничено!!!

2 сезон

iTunes

1 сезон

1

2 сезон

2 сезон

iTunes

1 сезон

RePack

30

Ultimate

ВАЖНО

ИГРА 18+

pack

RePack

MK11
pack

Забери бонус

RePack

jed

!!Акция!!

Alien_Rage

RePack

fifa19

RePack

Assassins Creed: Odyssey

RePack

NEED FOR SPEED™ PAYBACK

4 сезон

9 сезон

Бесстыжие 9 сезон

Все сериалы

все сериалы на PB.wtf

RePack

FAR CRY 5
  

Баскетс / Олух / Baskets / Сезон: 3 / Серии: 1-10 из 10 (Джонатан Крисел) [2018, Комедия, WEBRip 720p] MVO [Jaskier] pb.wtf

Баскетс через торрент pb.wtf

Размер: 6.94 GB | Добавлен: 2 года 6 мес. назад | Торрент скачан:3 раза
Скачать  

13-02-2018 08:29 Баскетс Скачать торрент  

Баскетс / Олух / BasketsГод выпуска: 2018
Страна: США
Жанр: Комедия
Продолжительность: 00:25:00
Перевод: Профессиональный (многоголосый) | Jaskier
Субтитры: английские

Режиссер: Джонатан Крисел

rating

В ролях:

Зак Галифианакис, Марта Келли, Луи Андерсон, Сабина Щубба, Эрнест Адамс, Малия Пайлс, Эллен Д. Уильямс, Джулия Грюнберг, Том Проктер, Крис МакЛафлин, Дэн Гилвзан, Роки МакДональд, Майлз Андерсон

Описание:

Главный герой этого сериала - Чип Баскетс. Этот человек отличается от всех других людей. Он всегда мечтал стать просто уважаемым клоуном, когда все остальные хотели быть бизнесменами и актерами. Ради своей мечты главный герой отправился во Францию, где посещал уроки профессиональных клоунов. Однако жизнь в Париже оказалась весьма непростой. Чтобы прокормить себя, Чипу приходится участвовать в местном родео. Однако заработка хватало едва ли, чтобы сводить концы с концами. Рано или поздно предстоит вернуться домой. О жизни столь необычного человека продолжится рассказ во втором сезоне сериала "Баскетс".

Качество: WEBRip 720p
Формат: MKV
Видео кодек: H.264
Аудио кодек: AC3

Видео: 1280x720 (16:9) | X264 | ~3088 kbps | 23.976 fps
Аудио#1: AC3, 48,0 КГц, 6 ch, 384 kbps - [RUS]
Аудио#2: Е-AC3, 48,0 КГц, 6 ch, 384 kbps - [ENG]
скриншот   скриншот   скриншот  

Общее
Уникальный идентификатор : 14910264281334560469857284993068899949 (0xB379CC93FB9D9C70B76530219591E6D)
Полное имя : E:\торреннты\Baskets Season 3 (WEBRip l 720p l Jaskier)\Baskets.S03E01.WEBRip.720p.Jaskier.mkv
Формат : Matroska
Версия формата : Version 4 / Version 2
Размер файла : 691 Мбайт
Продолжительность : 23 м. 28 с.
Режим общего битрейта : Переменный
Общий поток : 4115 Кбит/сек
Дата кодирования : UTC 2018-02-05 20:05:43
Программа кодирования : mkvmerge v19.0.0 ('Brave Captain') 64-bit
Библиотека кодирования : libebml v1.3.5 + libmatroska v1.4.8

Видео
Идентификатор : 1
Формат : AVC
Формат/Информация : Advanced Video Codec
Профиль формата : High@L3.1
Настройки формата : CABAC / 5 Ref Frames
Параметр CABAC формата : Да
Параметр RefFrames формата : 5 кадров
Идентификатор кодека : V_MPEG4/ISO/AVC
Продолжительность : 23 м. 28 с.
Вид битрейта : Переменный
Битрейт : 3088 Кбит/сек
Максимальный битрейт : 4500 Кбит/сек
Ширина : 1280 пикселей
Высота : 720 пикселей
Соотношение сторон : 16:9
Режим частоты кадров : Постоянный
Частота кадров : 23,976 (24000/1001) кадра/сек
Цветовое пространство : YUV
Субдискретизация насыщенности : 4:2:0
Битовая глубина : 8 бит
Тип развёртки : Прогрессивная
Бит/(Пиксели*Кадры) : 0.140
Размер потока : 519 Мбайт (75%)
Default : Да
Forced : Нет
Цветовой диапазон : Limited
Основные цвета : BT.709
Характеристики трансфера : BT.709
Коэффициенты матрицы : BT.709

Аудио #1
Идентификатор : 2
Формат : AC-3
Формат/Информация : Audio Coding 3
Идентификатор кодека : A_AC3
Продолжительность : 23 м. 28 с.
Вид битрейта : Постоянный
Битрейт : 384 Кбит/сек
Каналы : 6 каналов
Расположение каналов : Front: L C R, Side: L R, LFE
Частота : 48,0 КГц
Частота кадров : 31,250 кадров/сек (1536 SPF)
Битовая глубина : 16 бит
Метод сжатия : С потерями
Размер потока : 64,5 Мбайт (9%)
Заголовок : Jaskier
Язык : Russian
ServiceKind/String : Complete Main
Default : Да
Forced : Нет

Аудио #2
Идентификатор : 3
Формат : E-AC-3
Формат/Информация : Enhanced Audio Coding 3
Идентификатор кодека : A_EAC3
Продолжительность : 23 м. 28 с.
Вид битрейта : Постоянный
Битрейт : 640 Кбит/сек
Каналы : 6 каналов
Расположение каналов : Front: L C R, Side: L R, LFE
Частота : 48,0 КГц
Частота кадров : 187,500 кадров/сек (256 SPF)
Метод сжатия : С потерями
Размер потока : 107 Мбайт (16%)
Язык : English
ServiceKind/String : Complete Main
Default : Нет
Forced : Нет

Текст
Идентификатор : 4
Формат : UTF-8
Идентификатор кодека : S_TEXT/UTF8
Идентификатор кодека/Информация : UTF-8 Plain Text
Продолжительность : 23 м. 21 с.
Битрейт : 90 бит/сек
ElementCount : 525
Размер потока : 15,5 Кбайт (0%)
Язык : English
Default : Нет
Forced : Нет

Когда раздача ведётся путём добавления новых серий, при каждом добавлении создётся новый торрент. Чтобы начать докачку новой серии, пользователям необходимо сделать следующее:
(1) остановить скачивание,
(2) удалить старый торрент у себя из клиента (старые серии удалять не надо),
(3) скачать новый торрент и запустить его у себя в клиенте вместо старого, при этом указать клиенту путь в старую папку, куда и должно происходить скачивание новых серий.
Ваш клиент при этом должен произвести хеширование (проверку) старой папки (если не производит сам - помогите ему сделать это), и будет докачивать только те серии, которых у вас ещё нет. Старые серии при этом не удаляются, а продолжают раздаваться!
Eсли вы уже удалили старые серии, то предотвратить повторную закачку старых серий можно, отжав галочку в соответсвующих местах при запуске нового торрента. По возможности, желательно не удалять старые серии как можно дольше, чтобы релизер не столько продолжал раздавать старые серии, а смог сконцентрироваться на новых.
pb.wtf



Скачать Баскетс через торрент http://i99.fastpic.ru/big/2018/0205/06/6f89e07811f502e8d1629574c979f906.jpg Скачать фильм Баскетс через торрент бесплантно в хорошем качестве Описание: Главный герой этого сериала - Чип Баскетс. Этот человек отличается от всех других людей. Он всегда мечтал стать просто уважаемым ... 10 10 3
Торрент: Зарегистрирован [2018-04-29 07:22] · скачан: 3 раз
Статус: √ проверено
Размер: 6.94 GB
Как cкачать? Как скачать Баскетс через торрент | qTorrent

% Раздел Тема Автор DL S | L
Зарубежные сериалы [ 2.05 GB ] Баскетс / Олух / Baskets / Сезон: 3 / Серии: 1-7 из 10 [2018 WEB-DLRip] [MVO] killermax2013 Скачать
1 | 0
Зарубежные сериалы [ 2.94 GB ] Баскетс / Олух / Baskets / Сезон: 3 / Серии: 1-10 из 10 [2018 WEBRip] MVO [Jaskier] bober100 Скачать
1 | 0

28-11-2019 20:33  

Отключить всю рекламу на сайте

    Дорогой пользователь! Огромная просьба, поблагодарите релизера, оцените раздачу и оставьте свои комментарий, если Вы скачали Баскетс через торрент бесплатно! Внесите свою лепту в развитие PiratBit!
    Комментировать посты могут только пользователи прошедшие не сложную регистрацию
    Показать сообщения:    

    Баскетс через торрент
    Скачать бесплатно Баскетс
    Баскетс скачать торрент
    Баскетс смотреть онлайн
    Cкачать фильм Баскетс бесплатно
    Баскетс скачать торрент в хорошем качестве
    Баскетс смотреть онлайн бесплатно в хорошем качестве


    Вы не можете начинать темы
    Вы не можете отвечать на сообщения
    Вы не можете редактировать свои сообщения
    Вы не можете удалять свои сообщения
    Вы не можете голосовать в опросах
    Вы не можете прикреплять файлы к сообщениям
    Вы можете скачивать файлы