новый адрес пиратбит piratbit
Мега распродажа FORZA HORIZON 4 ULTIMATE+ВСЕ DLC+ОНЛАЙН всего за 499р. 349 руб. (супер цена). Внимание количество ограничено!!!

iTunes

1+1

iTunes

мы

iTunes

1

iTunes

Чернобыль

iTunes

Ральф против интернета

Лицензия

ПШазам

Лицензия

Игра престолов

Лицензия

30
pack

ВАЖНО

!!Акция!!

Alien_RageХит недели

RePack

Resident Evil 21

ИГРА 18+

pack

RePack

Metro:Exodus

!!Акция!!

Alien_Rage

RePack

fifa19

RePack

Assassins Creed: Odyssey

RePack

NEED FOR SPEED™ PAYBACK

3 сезон

9 сезон

Бесстыжие 9 сезон

Все сериалы

все сериалы на PB.wtf

RePack

FAR CRY 5
Ребята, катастрофически не хватает 1900р. для оплаты серверов за Октябрь (всвязи с блокировками трафик упал в 3 раза), 1-2р., выручайте.
  

Золотой эшелон (Илья Гурин) [1959, СССР, военный, DVDRip от AVP Studio] pb.wtf

Золотой эшелон через торрент pb.wtf

Размер: 746 MB | Добавлен: 1 год 8 мес. назад | Торрент скачан:17 раз
Скачать  

13-02-2018 09:30 Золотой эшелон Скачать торрент  

Золотой эшелон
Страна: СССР
Производство: Киностудия им. М. Горького

Жанр: военный
Год выпуска: 1959
Продолжительность: 01:34:19

Перевод: Не требуется
Cубтитры: нет
Оригинальная аудиодорожка: русский

Режиссер: Илья Гурин

В ролях:
Василий Шукшин, Елена Добронравова, Харийс Лиепиньш, Павел Усовниченко, Степан Крылов, Валентина Беляева, Аркадий Трусов, Сюй Сяо-Чжун, Я. Пехура, Б. Штепанек, Михаил Зимин, Валентин Грачёв, Анатолий Юшко, Александр Толстых, Пётр Вишняков, Виктор Кольцов (Кутаков), Ольга Жизнева, Михаил Козаков, Евгений Кузнецов, Александр Шатов, Сергей Папов, Галикс Колчицкий, Алексей Краснопольский...
Об актёрах подробней

Описание:
Зимой 1919 года к сибирским большевикам приезжает из Москвы связная Надя (Елена Добронравова). Она передаёт обращение Ленина: любой ценой спасти находящийся в Омске золотой запас России, помешать Колчаку вывезти его за границу. Боевая группа выработала смелый, но рискованный план. Осуществление его было возложено на венгра Иштвана (Харри Лиепиньш) и рабочего Андрея Низовцева (Василий Шукшин).

Источник: DVD5 R5
Качество видео: DVDRip
Формат видео: AVI

Видео: 576x432 (4:3), 25 fps, XviD ~ 968 kbps avg, 0.156 bit/pixel
Аудио: 48 kHz, MP3 2.0, 128 kbps

Раздача от:
Общее
Полное имя : Zolotoy.yeshelon.1959.DVDRip-745_[New-team]_by_AVP_Studio.avi
Формат : AVI
Формат/Информация : Audio Video Interleave
Размер файла : 746 Мбайт
Продолжительность : 1 ч. 34 м.
Общий поток : 1106 Кбит/сек
Программа кодирования : VirtualDubMod 1.5.10.3 | www.virtualdub-fr.org || (build 2550/release)
Библиотека кодирования : VirtualDubMod build 2550/release

Видео
Идентификатор : 0
Формат : MPEG-4 Visual
Профиль формата : Advanced Simple@L5
Настройки формата : BVOP1 / Custom Matrix
Параметр BVOP формата : 1
Параметр QPel формата : Нет
Параметр GMC формата : Без точки перехода
Параметр матрицы формата : Выборочная
Идентификатор кодека : XVID
Идентификатор кодека/Подсказка : XviD
Продолжительность : 1 ч. 34 м.
Битрейт : 968 Кбит/сек
Ширина : 576 пикселей
Высота : 432 пикселя
Соотношение сторон : 4:3
Частота кадров : 25,000 кадров/сек
Цветовое пространство : YUV
Субдискретизация насыщенности : 4:2:0
Битовая глубина : 8 бит
Тип развёртки : Прогрессивная
Метод сжатия : С потерями
Бит/(Пиксели*Кадры) : 0.156
Размер потока : 653 Мбайт (88%)
Библиотека кодирования : XviD 73

Аудио
Идентификатор : 1
Формат : MPEG Audio
Версия формата : Version 1
Профиль формата : Layer 3
Идентификатор кодека : 55
Идентификатор кодека/Подсказка : MP3
Продолжительность : 1 ч. 34 м.
Вид битрейта : Постоянный
Битрейт : 128 Кбит/сек
Каналы : 2 канала
Частота : 48,0 КГц
Частота кадров : 41,667 кадра/сек (1152 SPF)
Метод сжатия : С потерями
Размер потока : 86,3 Мбайт (12%)
Выравнивание : Соединение по промежуткам
Продолжительность промежутка : 40 мс. (1,00 видеокадр)
Время предзагрузки промежутка : 504 мс.
Библиотека кодирования : LAME3.99r
Настройки программы : -m s -V 4 -q 2 -lowpass 17 -b 128
pb.wtf



Скачать Золотой эшелон через торрент http://i100.fastpic.ru/big/2018/0213/5d/694e1ce651760932ef6f2e2fc735425d.png Скачать фильм Золотой эшелон через торрент бесплантно в хорошем качестве Описание:Зимой 1919 года к сибирским большевикам приезжает из Москвы связная Надя (Елена Добронравова). Она передаёт обращение Ленина: ... 5 10 1
Info! Золотая раздача, скачанное не засчитывается.
Торрент: Зарегистрирован [2018-02-13 09:30] · скачан: 17 раз
Статус: √ проверено
Размер: 746 MB
Как cкачать? Как скачать Золотой эшелон через торрент | qTorrent

% Раздел Тема Автор DL S | L
Кино СССР [ 1.46 GB ] Золотой эшелон [1959 СССР военный DVDRip-AVC от AVP Studio] AVP Studio Скачать
1 | 0
Кино СССР [ 1.46 GB ] Золотой эшелон [1959 СССР военный DVDRip от AVP Studio] AVP Studio Скачать
1 | 0


>> Регистрируемся здесь <<






Отзывы и комментарии о схеме читаем и пишем здесь: ---> Отзывы и комментарии о схеме

Новые благодарочки в телеграм довольных пользователей:
скриншот   скриншот   скриншот   скриншот   скриншот
    Дорогой пользователь! Огромная просьба, поблагодарите релизера, оцените раздачу и оставьте свои комментарий, если Вы скачали Золотой эшелон через торрент бесплатно! Внесите свою лепту в развитие PiratBit!
    Комментировать посты могут только пользователи прошедшие не сложную регистрацию
    Показать сообщения:    

    Золотой эшелон через торрент
    Скачать бесплатно Золотой эшелон
    Золотой эшелон скачать торрент
    Золотой эшелон смотреть онлайн
    Cкачать фильм Золотой эшелон бесплатно
    Золотой эшелон скачать торрент в хорошем качестве
    Золотой эшелон смотреть онлайн бесплатно в хорошем качестве


    Вы не можете начинать темы
    Вы не можете отвечать на сообщения
    Вы не можете редактировать свои сообщения
    Вы не можете удалять свои сообщения
    Вы не можете голосовать в опросах
    Вы не можете прикреплять файлы к сообщениям
    Вы можете скачивать файлы