Всегда рабочее зеркало просто перед .vidak.icu напиши любое слово или цифру, Пример http://p6g.vidak.icu

>

7.4

iTunes

7.4

2 сезон

9.4

1 сезон

1

7.4

2 сезон

7.2

iTunes

6.0

MVO

13

6.1

iTunes

8.3

Пиратка

30

ULTIMATE

pack

9.9

Лицензия

ВАЖНО

ИГРА 18+

pack

7.3

RePack

MK11

7.7

RePack

jed

7.8

RePack

fifa19

8.5

RePack

RDR2

RePack

NEED FOR SPEED™ PAYBACK

1 сезон

9 сезон

Бесстыжие 9 сезон

Все сериалы

все сериалы на PB.wtf

RePack

FAR CRY 5

Anonymous, доброй ночи, мы катастрофически не успеваем собрать деньги на оплату серверов, помогите нам пожалуйста 5,10,15р., для нас важна любая помощь . В качестве благодарности мы отключим Вам всю рекламу на сайте (укажите свой ник в строку Ваше имя)!

×
  
Magnet ссылка

Огонь, лёд и динамит / Feuer, Eis & Dynamit (Вилли Богнер) [1990 г., Комедия, боевик, спорт, DVDRip-AVC, Авторский (одноголосый)] от ExKinoRay pb.wtf

Огонь, лёд и динамит через торрент pb.wtf

Размер: 2.78 GB | Добавлен: 3 года 11 мес. назад | Торрент скачан:9 раз
Смотреть онлайн Огонь, лёд и динамит | Скачать    Ребята, помогите собрать деньги на оплату серверов!!!

13-02-2018 17:15 Огонь, лёд и динамит Скачать торрент  

Огонь лёд и динамит / Feuer Eis & Dynamit
Год выпуска: 1990
Страна: Германия
Жанр: Комедия, боевик, спорт
Продолжительность: 01:42:07
Перевод: Авторский (одноголосый)

Режиссер: Вилли Богнер

Бюджет: DEM 21 500 000
Премьера в мире: 18 октября 1990

rating

В ролях: Роджер Мур, Шари Белафонте, Саймон Шеферд, Уве Охзенкнехт, Джефри Мур, Конни Де Гроот, Силия Гор Бут, Зигфрид Раух, Урсула Карвен, Тициана Стелла, Изабель Лакамп

Описание: Дела корпорации сэра Джорджа идут не лучшим образом. И все из-за его любви к природе на проекты по охране которой тратятся огромные деньги. Он решает исправить положение единственным способом — завещать все свое состояние фонду Мегатон который проведет совершенно безумные 3-дневные гонки на горных лыжах, велосипедах, байдарках, машинах и коньках по самым крутым трассам. В гонках могут участвовать все кому должен денег сэр Джордж. Победитель получает все — 135 миллионов долларов.

Доп. информация: Авторский одноголосый (Сергей Визгунов, Вадим Белов)

Качество: DVDRip-AVC
Формат: MKV
Видео кодек: MPEG4
Аудио кодек: AC3
Видео: MPEG-4 AVC, 3000 Кбит/с, 716x428@1018x428, 25 кадров/сек
Аудио#1: Русский (AC3, 6 ch, 448 Кбит/с, 48 КГц) - Сергей Визгунов
Аудио#2: Русский (AC3, 6 ch, 448 Кбит/с, 48 КГц) - Вадим Белов
Релиз от:







raw [info]: 716x428p 64:45 @ 25/1 fps (cfr)
x264 [info]: using SAR=64/45
x264 [info]: using cpu capabilities: MMX2 SSE2Fast LZCNT
x264 [info]: profile High, level 4.1
x264 [info]: frame I:1127 Avg QP:17.08 size: 60949
x264 [info]: frame P:38557 Avg QP:19.96 size: 26569
x264 [info]: frame B:113492 Avg QP:21.47 size: 10613
x264 [info]: consecutive B-frames: 3.6% 4.8% 12.2% 27.7% 13.6% 34.6% 2.1% 0.7% 0.3% 0.1% 0.1% 0.1% 0.0% 0.0% 0.1% 0.0% 0.0%
------
Общее
Уникальный идентификатор : 201774630827327561298073562080028607832 (0x97CC615ECD21D55A96007E9FC7134558)
Полное имя : D:\ExKinoRay\Feuer.Eis.Dynamit.1990.DVDRip-AVC.ExKinoRay.mkv
Формат : Matroska
Версия формата : Version 2
Размер файла : 2,78 Гбайт
Продолжительность : 1 ч. 42 м.
Общий поток : 3898 Кбит/сек
Дата кодирования : UTC 2018-02-13 13:59:00
Программа кодирования : mkvmerge v7.8.0 ('River Man') 32bit built on Apr 3 2015 12:11:22
Библиотека кодирования : libebml v1.3.1 + libmatroska v1.4.2

Видео
Идентификатор : 1
Формат : AVC
Формат/Информация : Advanced Video Codec
Профиль формата : High@L4.1
Параметр CABAC формата : Да
Параметр ReFrames формата : 14 кадров
Идентификатор кодека : V_MPEG4/ISO/AVC
Продолжительность : 1 ч. 42 м.
Битрейт : 3000 Кбит/сек
Ширина : 716 пикселей
Высота : 428 пикселей
Соотношение сторон : 2,40:1
Режим частоты кадров : Постоянный
Частота кадров : 25,000 кадров/сек
Цветовое пространство : YUV
Субдискретизация насыщенности : 4:2:0
Битовая глубина : 8 бит
Тип развёртки : Прогрессивная
Бит/(Пиксели*Кадры) : 0.392
Размер потока : 2,09 Гбайт (75%)
Библиотека кодирования : x264 core 148 r2638 7599210
Настройки программы : cabac=1 / ref=14 / deblock=1:-2:-2 / analyse=0x3:0x133 / me=umh / subme=10 / psy=1 / psy_rd=1.05:0.15 / mixed_ref=1 / me_range=32 / chroma_me=1 / trellis=2 / 8x8dct=1 / cqm=0 / deadzone=21,11 / fast_pskip=0 / chroma_qp_offset=-3 / threads=4 / lookahead_threads=1 / sliced_threads=0 / nr=0 / decimate=0 / interlaced=0 / bluray_compat=0 / constrained_intra=0 / bframes=16 / b_pyramid=2 / b_adapt=2 / b_bias=0 / direct=3 / weightb=1 / open_gop=0 / weightp=2 / keyint=250 / keyint_min=25 / scenecut=40 / intra_refresh=0 / rc=2pass / mbtree=0 / bitrate=3000 / ratetol=1.0 / qcomp=0.60 / qpmin=0 / qpmax=69 / qpstep=4 / cplxblur=20.0 / qblur=0.5 / ip_ratio=1.40 / pb_ratio=1.30 / aq=1:1.00
Язык : English
Default : Да
Forced : Нет
Цветовой диапазон : Limited
Основные цвета : BT.601 NTSC
Характеристики трансфера : BT.601
Коэффициенты матрицы : BT.601

Аудио #1
Идентификатор : 2
Формат : AC-3
Формат/Информация : Audio Coding 3
Расширение режима : CM (complete main)
Параметр Endianness формата : Big
Идентификатор кодека : A_AC3
Продолжительность : 1 ч. 42 м.
Вид битрейта : Постоянный
Битрейт : 448 Кбит/сек
Каналы : 6 каналов
Расположение каналов : Front: L C R, Side: L R, LFE
Частота : 48,0 КГц
Частота кадров : 31,250 кадров/сек (1536 spf)
Метод сжатия : С потерями
Размер потока : 327 Мбайт (11%)
Заголовок : Сергей Визгунов
Язык : Russian
Default : Да
Forced : Нет

Аудио #2
Идентификатор : 3
Формат : AC-3
Формат/Информация : Audio Coding 3
Расширение режима : CM (complete main)
Параметр Endianness формата : Big
Идентификатор кодека : A_AC3
Продолжительность : 1 ч. 42 м.
Вид битрейта : Постоянный
Битрейт : 448 Кбит/сек
Каналы : 6 каналов
Расположение каналов : Front: L C R, Side: L R, LFE
Частота : 48,0 КГц
Частота кадров : 31,250 кадров/сек (1536 spf)
Метод сжатия : С потерями
Размер потока : 327 Мбайт (11%)
Заголовок : Вадим Белов
Язык : Russian
Default : Нет
Forced : Нет

pb.wtf



Скачать Огонь, лёд и динамит через торрент http://c.radikal.ru/c22/1802/83/a3931a4af856.jpg Скачать, смотреть онлайн Огонь, лёд и динамит бесплантно в хорошем качестве Описание: Дела корпорации сэра Джорджа идут не лучшим образом. И все из-за его любви к природе на проекты по охране которой тратятся ... 10 10 2
Info! Золотая раздача, скачанное не засчитывается.
Торрент: Зарегистрирован [2018-02-13 17:15] · скачан: 9 раз
Статус: √ проверено
Размер: 2.78 GB
Как cкачать? Как скачать Огонь, лёд и динамит через торрент | UTorrent

28-11-2019 20:33  

Отключить всю рекламу на сайте

13-02-2018 18:18 Огонь, лёд и динамит Скачать торрент  

Топик был перенесен из форума Оформление раздач (Кино, Видео и ТВ) в форум Фильмы с авторской озвучкой


-Lexx-pb.wtf



    Дорогой пользователь! Огромная просьба, поблагодарите релизера, оцените раздачу и оставьте свои комментарий, если Вы скачали Огонь, лёд и динамит через торрент бесплатно!
    Комментировать посты могут только пользователи прошедшие не сложную регистрацию
    Показать сообщения:    

    Огонь, лёд и динамит через торрент
    Скачать бесплатно Огонь, лёд и динамит
    Огонь, лёд и динамит скачать торрент
    Огонь, лёд и динамит смотреть онлайн
    Cкачать фильм Огонь, лёд и динамит бесплатно
    Огонь, лёд и динамит скачать торрент в хорошем качестве
    Огонь, лёд и динамит смотреть онлайн бесплатно в хорошем качестве


    Вы не можете начинать темы
    Вы не можете отвечать на сообщения
    Вы не можете редактировать свои сообщения
    Вы не можете удалять свои сообщения
    Вы не можете голосовать в опросах
    Вы не можете прикреплять файлы к сообщениям
    Вы можете скачивать файлы