Ссылка на приватное зеркало всего за 1$. Внимание количество ограничено!!!

OK

1+1

iTunes

мы

OK

1

WEB-DLRip

Джокер

Пифагор

Ведьмак / The Witcher сериал

iTunes

ПШазам

ОК

Оно 2

iTunes

30
pack

Вам бонус

ВАЖНО

!!Акция!!

Alien_RageХит недели

RePack

Resident Evil 21

ИГРА 18+

pack

RePack

jed

RePack

fifa19

RePack

Assassins Creed: Odyssey

RePack

NEED FOR SPEED™ PAYBACK

4 сезон

9 сезон

Бесстыжие 9 сезон

Все сериалы

все сериалы на PB.wtf

RePack

FAR CRY 5
  

Сильвио / Sylvio (Кентакер Одли, Альберт Бирни) [2017, фэнтези, драма, комедия, WEB-DL 720p] MVO ["Синема УС] pb.wtf

Сильвио через торрент pb.wtf

Размер: 2.73 GB | Добавлен: 1 год 11 мес. назад | Торрент скачан:21 раз
Скачать  

13-02-2018 17:39 Сильвио Скачать торрент  

Сильвио / SylvioГод выпуска: 2017
Страна: США
Жанр: фэнтези, драма, комедия
Продолжительность: 01:21:28
Перевод: Любительский (многоголосый) ["Синема УС]
Субтитры: отсутствуют

Режиссер: Кентакер Одли, Альберт Бирни

rating

В ролях:

Сильвио Бернарди, Кентакер Одли, Стив Бауэр, Тэннер Бирд, Джои Берд, Альберт Бирни, Эфраим Бирни, Миэль Бредоу, Марк Бурчик, Амелинда Бурич

Описание:

Сильвио Бернарди - не человек, а антропоморфная горилла, которая просто пытается найти своё место под солнцем и жить в большом городе среди людей. Сильвио работает в конторе по сбору долгов, где общается с клиентами при помощи речевого синтезатора, но на самом деле он мечтает о карьере автора кукольных мультфильмов. Однажды среди его клиентов оказывается человек, снимающий в собственном подвале шоу для кабельного телеканала - и Сильвио видит в этой встрече возможность продемонстрировать свои таланты.

Качество: WEB-DL 720p
Формат: MKV
Видео кодек: H.264
Аудио кодек: AC3

Видео: 4413 Кбит/с, 1280x720
Аудио#1: AC3, 2 ch, 384 Кбит/с

скриншот  скриншот  скриншот  

Общее
Уникальный идентификатор : 250850366273766415102498865907802545180 (0xBCB805F0384D7524A78D84F5A6579C1C)
Полное имя : D:\Sylvio.2017.P.WEB-DL.72Op_KOSHARA.mkv
Формат : Matroska
Версия формата : Version 2
Размер файла : 2,73 Гбайт
Продолжительность : 1 ч. 21 м.
Режим общего битрейта : Переменный
Общий поток : 4798 Кбит/сек
Дата кодирования : UTC 2018-02-12 19:12:38
Программа кодирования : mkvmerge v8.3.0 ('Over the Horizon') 64bit
Библиотека кодирования : libebml v1.3.1 + libmatroska v1.4.2

Видео
Идентификатор : 1
Формат : AVC
Формат/Информация : Advanced Video Codec
Профиль формата : High@L4.1
Параметр CABAC формата : Да
Параметр ReFrames формата : 4 кадра
Идентификатор кодека : V_MPEG4/ISO/AVC
Продолжительность : 1 ч. 21 м.
Вид битрейта : Переменный
Битрейт : 4413 Кбит/сек
Максимальный битрейт : 5000 Кбит/сек
Ширина : 1280 пикселей
Высота : 720 пикселей
Соотношение сторон : 16:9
Режим частоты кадров : Постоянный
Частота кадров : 23,976 (24000/1001) кадра/сек
Стандарт вещания : Component
Цветовое пространство : YUV
Субдискретизация насыщенности : 4:2:0
Битовая глубина : 8 бит
Тип развёртки : Прогрессивная
Бит/(Пиксели*Кадры) : 0.195
Размер потока : 2,46 Гбайт (90%)
Default : Да
Forced : Нет
Цветовой диапазон : Limited
Основные цвета : BT.709
Характеристики трансфера : BT.709
Коэффициенты матрицы : BT.709

Аудио
Идентификатор : 2
Формат : AC-3
Формат/Информация : Audio Coding 3
Расширение режима : CM (complete main)
Параметр Endianness формата : Big
Идентификатор кодека : A_AC3
Продолжительность : 1 ч. 21 м.
Вид битрейта : Постоянный
Битрейт : 384 Кбит/сек
Каналы : 2 канала
Расположение каналов : Front: L R
Частота : 48,0 КГц
Частота кадров : 31,250 кадров/сек (1536 spf)
Метод сжатия : С потерями
Размер потока : 224 Мбайт (8%)
Default : Да
Forced : Нет

pb.wtf



Скачать Сильвио через торрент http://img12.lostpic.net/2018/02/13/e66f4eca30f876443bac67312b38e2a6.jpg Скачать фильм Сильвио через торрент бесплантно в хорошем качестве Описание: Сильвио Бернарди - не человек, а антропоморфная горилла, которая просто пытается найти своё место под солнцем и жить в большом ... 7 10 3
Торрент: Зарегистрирован [2018-02-13 17:39] · скачан: 21 раз
Статус: T временная
Размер: 2.73 GB
Как cкачать? Как скачать Сильвио через торрент | qTorrent

% Раздел Тема Автор DL S | L
Порно фильмы с сюжетом [ 861 MB ] Аромат Сильвии / L'Odore di Silvia / The Scent Of Silvia [2003 Feature Foreign Straight Oral Anal Big Tits Porn Stars DVDRip 576p] sheker187 Скачать
1 | 0
T Фильмы (мультфильмы) cо спонсором показа (Новинки AVI/MKV) [ 1.37 GB ] Сильвио / Sylvio [2017 WEB-DLRip] MVO ["Синема УС] bober100 Скачать
1 | 0
Лесбиянки [ 1.37 GB ] Сексуальные Ножки Сильвии Сэйнт / Silvia Saint's Leg Sex Friends [2006 Lesbo and Solo DVDRip Оригинал] sheker187 Скачать
1 | 0
Порно фильмы без сюжета [ 792 MB ] 100 % Сильвия / 100% Silvia [2000 All Sex Anal Oral Gonzo BigTits Porn Stars Hardcore DVDRip 240p] sheker187 Скачать
1 | 0
Фильмы 2014 [DVDrip, WEB-DLRip, HDrip] [ 1.44 GB ] Не вижу зла 2 / See No Evil 2 [2014 HDRip MVO] Ворон Скачать
1 | 0
T Фильмы 2014 (Звук TS, Cam, VO, DVO) [ 1.27 GB ] Не вижу зла 2 / See No Evil 2 [2014 HDRip Любительский [МЕГАПЫХАРЬ] GEKADOL Скачать
1 | 0
T Фильмы 2013 (Звук TS, Cam, VO, DVO) [ 1.46 GB ] Магия магия / Magic Magic [ 2013 Чили WEB-DLRip ]Любительский GEKADOL Скачать
1 | 0

28-11-2019 20:33  

Отключить всю рекламу на сайте

13-02-2018 23:37 Сильвио Скачать торрент  

что за бредятина.pb.wtf



14-02-2018 01:32 Сильвио Скачать торрент  

Дурь у них забористаяpb.wtf



14-02-2018 01:35 Сильвио Скачать торрент  

SASHA66 писал(а):

что за бредятина.

знаешь выражение "только с гор\деревьев слезли и...".
ну вот тоже самое только оччччень толерантно))pb.wtf



14-02-2018 15:17 Сильвио Скачать торрент  

Рейтинг - хрень, фильм - бред... короче отстой...поражает с первых минут своей не смотрибильностьюpb.wtf



    Дорогой пользователь! Огромная просьба, поблагодарите релизера, оцените раздачу и оставьте свои комментарий, если Вы скачали Сильвио через торрент бесплатно! Внесите свою лепту в развитие PiratBit!
    Комментировать посты могут только пользователи прошедшие не сложную регистрацию
    Показать сообщения:    

    Сильвио через торрент
    Скачать бесплатно Сильвио
    Сильвио скачать торрент
    Сильвио смотреть онлайн
    Cкачать фильм Сильвио бесплатно
    Сильвио скачать торрент в хорошем качестве
    Сильвио смотреть онлайн бесплатно в хорошем качестве


    Вы не можете начинать темы
    Вы не можете отвечать на сообщения
    Вы не можете редактировать свои сообщения
    Вы не можете удалять свои сообщения
    Вы не можете голосовать в опросах
    Вы не можете прикреплять файлы к сообщениям
    Вы можете скачивать файлы