Ссылка на приватное зеркало всего за 1$. Внимание количество ограничено!!!

OK

1+1

iTunes

мы

OK

1

WEB-DLRip

Джокер

Пифагор

Ведьмак / The Witcher сериал

iTunes

ПШазам

ОК

Оно 2

iTunes

30
pack

Вам бонус

ВАЖНО

!!Акция!!

Alien_RageХит недели

RePack

Resident Evil 21

ИГРА 18+

pack

RePack

jed

RePack

fifa19

RePack

Assassins Creed: Odyssey

RePack

NEED FOR SPEED™ PAYBACK

4 сезон

9 сезон

Бесстыжие 9 сезон

Все сериалы

все сериалы на PB.wtf

RePack

FAR CRY 5
  

Пока нет волка / Mientras el Lobo No Está (Джозеф Хемсани) [2017, триллер, драма, детектив, WEB-DL 720p] MVO ["Синема УС] pb.wtf

Пока нет волка через торрент pb.wtf

Размер: 4.3 GB | Добавлен: 1 год 11 мес. назад | Торрент скачан:76 раз
Скачать  

13-02-2018 18:37 Пока нет волка Скачать торрент  

Пока нет волка / Mientras el Lobo No EstáГод выпуска: 2017
Страна: Мексика
Жанр: триллер, драма, детектив
Продолжительность: 02:03:51
Перевод: Любительский (многоголосый) ["Синема УС]
Субтитры: отсутствуют

Режиссер: Джозеф Хемсани

rating

В ролях:

Ричи Местре, Карла Аделл, Луис де Ла Роса, Рехина Рейносо, Миранда Кэй, Марсе Каррера, Мишель Арлук, Маурицио Гарсия Лозаньо, Луис Мануэль Каразо, Амаранта Гутьеррес

Описание:

Группа подростков пытается сбежать из закрытой школы-интерната, потому что там скрываются какие-то страшные тайны.

Качество: WEB-DL 720p
Формат: MKV

Видео: 4587 Kb/s, 1280x536
Аудио#1: Русский, (AC3, 2 ch, 384 Кбит/с)

скриншот  скриншот  скриншот  

Общее
Уникальный идентификатор : 236282122527030454193362773857428646657 (0xB1C248110706972981FF0DE1B1F92B01)
Полное имя : D:\Mientras el lobo no esta.2017.P.WEB-DL.72Op_KOSHARA.mkv
Формат : Matroska
Версия формата : Version 2
Размер файла : 4,30 Гбайт
Продолжительность : 2 ч. 3 м.
Режим общего битрейта : Переменный
Общий поток : 4973 Кбит/сек
Дата кодирования : UTC 2018-02-13 13:14:19
Программа кодирования : mkvmerge v8.3.0 ('Over the Horizon') 64bit
Библиотека кодирования : libebml v1.3.1 + libmatroska v1.4.2

Видео
Идентификатор : 1
Формат : AVC
Формат/Информация : Advanced Video Codec
Профиль формата : High@L4.1
Параметр CABAC формата : Да
Параметр ReFrames формата : 4 кадра
Идентификатор кодека : V_MPEG4/ISO/AVC
Продолжительность : 2 ч. 3 м.
Вид битрейта : Переменный
Битрейт : 4587 Кбит/сек
Максимальный битрейт : 5000 Кбит/сек
Ширина : 1280 пикселей
Высота : 536 пикселей
Соотношение сторон : 2,40:1
Режим частоты кадров : Постоянный
Частота кадров : 23,976 (24000/1001) кадра/сек
Стандарт вещания : Component
Цветовое пространство : YUV
Субдискретизация насыщенности : 4:2:0
Битовая глубина : 8 бит
Тип развёртки : Прогрессивная
Бит/(Пиксели*Кадры) : 0.273
Размер потока : 3,88 Гбайт (90%)
Default : Да
Forced : Нет
Цветовой диапазон : Limited
Основные цвета : BT.709
Характеристики трансфера : BT.709
Коэффициенты матрицы : BT.709

Аудио
Идентификатор : 2
Формат : AC-3
Формат/Информация : Audio Coding 3
Расширение режима : CM (complete main)
Параметр Endianness формата : Big
Идентификатор кодека : A_AC3
Продолжительность : 2 ч. 3 м.
Вид битрейта : Постоянный
Битрейт : 384 Кбит/сек
Каналы : 2 канала
Расположение каналов : Front: L R
Частота : 48,0 КГц
Частота кадров : 31,250 кадров/сек (1536 spf)
Метод сжатия : С потерями
Размер потока : 340 Мбайт (8%)
Default : Да
Forced : Нет

pb.wtf



Скачать Пока нет волка через торрент http://img12.lostpic.net/2018/02/13/72162c5fa0912ea9a6c97731613ab66a.jpg Скачать фильм Пока нет волка через торрент бесплантно в хорошем качестве Описание: Группа подростков пытается сбежать из закрытой школы-интерната, потому что там скрываются какие-то страшные ... 7.8 10 4
Торрент: Зарегистрирован [2018-02-13 18:37] · скачан: 76 раз
Статус: T временная
Размер: 4.3 GB
Как cкачать? Как скачать Пока нет волка через торрент | qTorrent

% Раздел Тема Автор DL S | L
T Фильмы (мультфильмы) cо спонсором показа (Новинки AVI/MKV) [ 1.37 GB ] Пока нет волка / Mientras el Lobo No Está [2017 WEB-DLRip] MVO ["Синема УС] bober100 Скачать
1 | 0
T Фильмы (мультфильмы) cо спонсором показа (Новинки AVI/MKV) [ 2.04 GB ] Пока нет волка / Mientras el Lobo No Está [2017 WEB-DLRip] MVO ["Синема УС] bober100 Скачать
1 | 0

28-11-2019 20:33  

Отключить всю рекламу на сайте

13-02-2018 19:04 Пока нет волка Скачать торрент  

"потому что там скрываются какие-то страшные тайны"... Все едят буррито и запивают текилой, вместо макдональдса и кока-колы? Ну интернета еще нет, по ходу. Короче попали детишки.pb.wtf



    Дорогой пользователь! Огромная просьба, поблагодарите релизера, оцените раздачу и оставьте свои комментарий, если Вы скачали Пока нет волка через торрент бесплатно! Внесите свою лепту в развитие PiratBit!
    Комментировать посты могут только пользователи прошедшие не сложную регистрацию
    Показать сообщения:    

    Пока нет волка через торрент
    Скачать бесплатно Пока нет волка
    Пока нет волка скачать торрент
    Пока нет волка смотреть онлайн
    Cкачать фильм Пока нет волка бесплатно
    Пока нет волка скачать торрент в хорошем качестве
    Пока нет волка смотреть онлайн бесплатно в хорошем качестве


    Вы не можете начинать темы
    Вы не можете отвечать на сообщения
    Вы не можете редактировать свои сообщения
    Вы не можете удалять свои сообщения
    Вы не можете голосовать в опросах
    Вы не можете прикреплять файлы к сообщениям
    Вы можете скачивать файлы