Ссылка на приватное зеркало всего за 1$. Внимание количество ограничено!!!

OK

1+1

iTunes

мы

OK

1

WEB-DLRip

Джокер

Пифагор

Ведьмак / The Witcher сериал

iTunes

ПШазам

ОК

Оно 2

iTunes

30
pack

Вам бонус

ВАЖНО

!!Акция!!

Alien_RageХит недели

RePack

Resident Evil 21

ИГРА 18+

pack

RePack

jed

RePack

fifa19

RePack

Assassins Creed: Odyssey

RePack

NEED FOR SPEED™ PAYBACK

4 сезон

9 сезон

Бесстыжие 9 сезон

Все сериалы

все сериалы на PB.wtf

RePack

FAR CRY 5
  

Пока смерть не разлучит нас / Til Death Do Us Part (Крис Стоукс) [2017, триллер, WEBRip 720p] MVO [КОЛОБОК] pb.wtf

Пока смерть не разлучит нас через торрент pb.wtf

Размер: 2.91 GB | Добавлен: 1 год 11 мес. назад | Торрент скачан:21 раз
Скачать  

14-02-2018 08:11 Пока смерть не разлучит нас Скачать торрент  

Пока смерть не разлучит нас / Til Death Do Us PartГод выпуска: 2017
Страна: США
Жанр: триллер
Продолжительность: 01:38:36
Перевод: Любительский (многоголосый) [КОЛОБОК]
Субтитры: отсутствуют

Режиссер: Крис Стоукс

rating

В ролях:

Стефен Бишоп, Марк Г. Чепмен, Джессика Ванесса ДеЛеон, Тэй Диггз, Шеннон Эколс, Эми Хантер, Энни Илонзе, Робин Ли, Шейла М. Локхарт, Джанет Лопез

Описание:

Майкл и Мэдисон Роланд планировали провести остаток жизни вместе, но в итоге стремление Майкла все контролировать привело брак к краху. С помощью подруги Мэдисон решает исчезнуть. Получив новые документы она встречает Алекса Стоуна и снова влюбляется. Все шло хорошо до тех пор, пока Майкл не узнал о ее местонахождении.

Качество: WEBRip 720p
Формат: MKV
Видео кодек: H.264
Аудио кодек: AC3

Видео: 3841 Кбит/с, 1280x536
Аудио#1: Русский, (AC3, 2 ch, 384 Кбит/с)

скриншот  скриншот  скриншот  

Общее
Уникальный идентификатор : 226044037506579948947236613037471797976 (0xAA0E7F80C18C5D5B881F6427622792D8)
Полное имя : D:\Til.Death.Do.Us.Part.2017.P.kol.HDTV.72Op_KOSHARA.mkv
Формат : Matroska
Версия формата : Version 2
Размер файла : 2,91 Гбайт
Продолжительность : 1 ч. 38 м.
Режим общего битрейта : Переменный
Общий поток : 4227 Кбит/сек
Дата кодирования : UTC 2018-02-13 18:56:48
Программа кодирования : mkvmerge v8.3.0 ('Over the Horizon') 64bit
Библиотека кодирования : libebml v1.3.1 + libmatroska v1.4.2

Видео
Идентификатор : 1
Формат : AVC
Формат/Информация : Advanced Video Codec
Профиль формата : High@L4.1
Параметр CABAC формата : Да
Параметр ReFrames формата : 4 кадра
Идентификатор кодека : V_MPEG4/ISO/AVC
Продолжительность : 1 ч. 38 м.
Вид битрейта : Переменный
Битрейт : 3841 Кбит/сек
Максимальный битрейт : 4300 Кбит/сек
Ширина : 1280 пикселей
Высота : 536 пикселей
Соотношение сторон : 2,40:1
Режим частоты кадров : Постоянный
Частота кадров : 23,976 (24000/1001) кадра/сек
Стандарт вещания : Component
Цветовое пространство : YUV
Субдискретизация насыщенности : 4:2:0
Битовая глубина : 8 бит
Тип развёртки : Прогрессивная
Бит/(Пиксели*Кадры) : 0.229
Размер потока : 2,59 Гбайт (89%)
Default : Да
Forced : Нет
Цветовой диапазон : Limited
Основные цвета : BT.709
Характеристики трансфера : BT.709
Коэффициенты матрицы : BT.709

Аудио
Идентификатор : 2
Формат : AC-3
Формат/Информация : Audio Coding 3
Расширение режима : CM (complete main)
Параметр Endianness формата : Big
Идентификатор кодека : A_AC3
Продолжительность : 1 ч. 38 м.
Вид битрейта : Постоянный
Битрейт : 384 Кбит/сек
Каналы : 2 канала
Расположение каналов : Front: L R
Частота : 48,0 КГц
Частота кадров : 31,250 кадров/сек (1536 spf)
Метод сжатия : С потерями
Размер потока : 271 Мбайт (9%)
Default : Да
Forced : Нет

pb.wtf



Скачать Пока смерть не разлучит нас через торрент http://img12.lostpic.net/2018/02/14/82a1bde5861dfc9003eb0eafecb62a24.jpg Скачать фильм Пока смерть не разлучит нас через торрент бесплантно в хорошем качестве Описание: Майкл и Мэдисон Роланд планировали провести остаток жизни вместе, но в итоге стремление Майкла все контролировать привело брак к ... 10 10 3
Торрент: Зарегистрирован [2018-02-14 08:11] · скачан: 21 раз
Статус: T временная
Размер: 2.91 GB
Как cкачать? Как скачать Пока смерть не разлучит нас через торрент | qTorrent

% Раздел Тема Автор DL S | L
T Фильмы (мультфильмы) cо спонсором показа (Новинки AVI/MKV) [ 1.37 GB ] Пока смерть не разлучит нас / Til Death Do Us Part [2017 WEBRip] MVO [КОЛОБОК] bober100 Скачать
1 | 0

28-11-2019 20:33  

Отключить всю рекламу на сайте

14-02-2018 12:36 Пока смерть не разлучит нас Скачать торрент  

"В постели с врагом" на новый лад?pb.wtf



14-02-2018 13:53 Пока смерть не разлучит нас Скачать торрент  

С таким рейтингом ещё и рекламу воткнули)pb.wtf



    Дорогой пользователь! Огромная просьба, поблагодарите релизера, оцените раздачу и оставьте свои комментарий, если Вы скачали Пока смерть не разлучит нас через торрент бесплатно! Внесите свою лепту в развитие PiratBit!
    Комментировать посты могут только пользователи прошедшие не сложную регистрацию
    Показать сообщения:    

    Пока смерть не разлучит нас через торрент
    Скачать бесплатно Пока смерть не разлучит нас
    Пока смерть не разлучит нас скачать торрент
    Пока смерть не разлучит нас смотреть онлайн
    Cкачать фильм Пока смерть не разлучит нас бесплатно
    Пока смерть не разлучит нас скачать торрент в хорошем качестве
    Пока смерть не разлучит нас смотреть онлайн бесплатно в хорошем качестве


    Вы не можете начинать темы
    Вы не можете отвечать на сообщения
    Вы не можете редактировать свои сообщения
    Вы не можете удалять свои сообщения
    Вы не можете голосовать в опросах
    Вы не можете прикреплять файлы к сообщениям
    Вы можете скачивать файлы