новый адрес
Мега распродажа FORZA HORIZON 4 ULTIMATE+ВСЕ DLC+ОНЛАЙН всего за 499р. 349 руб. (супер цена). Внимание количество ограничено!!!

iTunes

1+1

iTunes

мы

iTunes

1

iTunes

Чернобыль

iTunes

Ральф против интернета

Лицензия

ПШазам

Лицензия

Игра престолов

Лицензия

30
pack

ВАЖНО

!!Акция!!

Alien_RageХит недели

RePack

Resident Evil 21

ИГРА 18+

pack

RePack

Metro:Exodus

!!Акция!!

Alien_Rage

RePack

fifa19

RePack

Assassins Creed: Odyssey

RePack

NEED FOR SPEED™ PAYBACK

3 сезон

9 сезон

Бесстыжие 9 сезон

Все сериалы

все сериалы на PB.wtf

RePack

FAR CRY 5
Ребята, катастрофически не хватает 1900р. для оплаты серверов за Октябрь (всвязи с блокировками трафик упал в 3 раза), 1-2р., выручайте.
  

Воскресение (Михаил Швейцер) [1960, СССР, драма, SATRip от AVP Studio] pb.wtf

Воскресение через торрент pb.wtf

Размер: 2.17 GB | Добавлен: 1 год 9 мес. назад | Торрент скачан:17 раз
Скачать  

14-02-2018 08:20 Воскресение Скачать торрент  

Воскресение
Страна: СССР
Производство: Мосфильм

Жанр: драма
Год выпуска: 1960
Продолжительность: 03:13:21 (01:35:09 + 01:38:12)

Перевод: Не требуется
Cубтитры: нет
Оригинальная аудиодорожка: русский

Режиссер: Михаил Швейцер

В ролях:
Тамара Сёмина, Евгений Матвеев, Павел Массальский, Виктор Кулаков, Василий Бокарев, Лев Золотухин, Надежда Самсонова, Владимир Борискин, Валентина Телегина, Николай Сергеев, Анастасия Зуева, Владимир Гусев, Клара Румянова, Валентина Лановая, Василий Ливанов, Владимир Белокуров, Михаил Сидоркин...
Об актёрах подробней

Описание:
Экранизация одноименного романа Льва Николаевича Толстого.
Мимолетное увлечение молодого князя ломает судьбу юной девушки, в конце концов приводя ее на каторгу. И тогда же к князю Нехлюдову приходит раскаяние и чувство вины…

Исходник: DVB
Качество видео: SATRip
Формат видео: AVI

Видео: 688х512 (4:3), 25 fps, XviD ~ 1407 kbps avg, 0.160 bit/pixel
Аудио: 48 kHz, Dolby Digital AC3 2.0, 192 kbps

Раздача от:
Общее
Полное имя : D:\Tracker\Сериалы\Воскресение\Voskresenie.1960.SATRip_[New-team]_by_AVP_Studio\Серия 01.avi
Формат : AVI
Формат/Информация : Audio Video Interleave
Размер файла : 1,07 Гбайт
Продолжительность : 1 ч. 35 м.
Общий поток : 1609 Кбит/сек
Программа кодирования : VirtualDubMod 1.5.10.3 | www.virtualdub-fr.org || (build 2550/release)
Библиотека кодирования : VirtualDubMod build 2550/release

Видео
Идентификатор : 0
Формат : MPEG-4 Visual
Профиль формата : Advanced Simple@L5
Настройки формата : BVOP1 / Custom Matrix
Параметр BVOP формата : 1
Параметр QPel формата : Нет
Параметр GMC формата : Без точки перехода
Параметр матрицы формата : Выборочная
Идентификатор кодека : XVID
Идентификатор кодека/Подсказка : XviD
Продолжительность : 1 ч. 35 м.
Битрейт : 1407 Кбит/сек
Ширина : 688 пикселей
Высота : 512 пикселей
Соотношение сторон : 4:3
Частота кадров : 25,000 кадров/сек
Цветовое пространство : YUV
Субдискретизация насыщенности : 4:2:0
Битовая глубина : 8 бит
Тип развёртки : Прогрессивная
Метод сжатия : С потерями
Бит/(Пиксели*Кадры) : 0.160
Размер потока : 958 Мбайт (87%)
Библиотека кодирования : XviD 73

Аудио
Идентификатор : 1
Формат : AC-3
Формат/Информация : Audio Coding 3
Идентификатор кодека : 2000
Продолжительность : 1 ч. 35 м.
Вид битрейта : Постоянный
Битрейт : 192 Кбит/сек
Каналы : 2 канала
Расположение каналов : Front: L R
Частота : 48,0 КГц
Частота кадров : 31,250 кадров/сек (1536 SPF)
Битовая глубина : 16 бит
Метод сжатия : С потерями
Размер потока : 131 Мбайт (12%)
Выравнивание : Разделение по промежуткам
Продолжительность промежутка : 40 мс. (1,00 видеокадр)
Время предзагрузки промежутка : 500 мс
pb.wtf



Скачать Воскресение через торрент http://i103.fastpic.ru/big/2018/0214/b2/af417d5428f14ca9934b10fc033478b2.png Скачать фильм Воскресение через торрент бесплантно в хорошем качестве Описание:Экранизация одноименного романа Льва Николаевича Толстого.Мимолетное увлечение молодого князя ломает судьбу юной девушки, в конце ... 5 10 1
Info! Золотая раздача, скачанное не засчитывается.
Торрент: Зарегистрирован [2018-02-14 08:20] · скачан: 17 раз
Статус: √ проверено
Размер: 2.17 GB
Как cкачать? Как скачать Воскресение через торрент | qTorrent

% Раздел Тема Автор DL S | L
Рок, Панк, Альтернатива (mp3) [ 354 MB ] VA - Воскресение - 1989 /2010/ MP3/ tracks/ 320 kbps/ Rock sergej644 Скачать
5 | 0
Наши новые фильмы 2018-2019 [ 1.46 GB ] Воскресенье [2019 WEB-DLRip] bober100 Скачать
22 | 0
Наши фильмы (HD, WEB-DL 720p, 1080p) [ 3.21 GB ] Воскресенье [2019 WEB-DL 1080p] bober100 Скачать
4 | 0
National Geographic [ 2.5 GB ] Nat Geo Wild: Дикая природа: Остров Воскресения / Wild Life: Resurrection Island [2018 Документальный природа флора фауна HDTV 1080i] VO bober100 Скачать
1 | 0
Кино СССР [ 1.09 GB ] Два воскресенья [1963 СССР SATRip-AVC от AVP Studio] AVP Studio Скачать
1 | 0
Кино СССР [ 1.09 GB ] Два воскресенья [1963 СССР SATRip от AVP Studio] AVP Studio Скачать
1 | 0
Фильмы до 2000 г. [ 2.19 GB ] Каждое Воскресенье / Any Given Sunday [1999 BDRip] [MVO] + [DVO] killermax2013 Скачать
1 | 0


>> Регистрируемся здесь <<






Отзывы и комментарии о схеме читаем и пишем здесь: ---> Отзывы и комментарии о схеме

Новые благодарочки в телеграм довольных пользователей:
скриншот   скриншот   скриншот   скриншот   скриншот
    Дорогой пользователь! Огромная просьба, поблагодарите релизера, оцените раздачу и оставьте свои комментарий, если Вы скачали Воскресение через торрент бесплатно! Внесите свою лепту в развитие PiratBit!
    Комментировать посты могут только пользователи прошедшие не сложную регистрацию
    Показать сообщения:    

    Воскресение через торрент
    Скачать бесплатно Воскресение
    Воскресение скачать торрент
    Воскресение смотреть онлайн
    Cкачать фильм Воскресение бесплатно
    Воскресение скачать торрент в хорошем качестве
    Воскресение смотреть онлайн бесплатно в хорошем качестве


    Вы не можете начинать темы
    Вы не можете отвечать на сообщения
    Вы не можете редактировать свои сообщения
    Вы не можете удалять свои сообщения
    Вы не можете голосовать в опросах
    Вы не можете прикреплять файлы к сообщениям
    Вы можете скачивать файлы