Ссылка на приватное зеркало нашего сайта всего за 1$. Внимание количество ограничено!!!

2 сезон

iTunes

iTunes

1

iTunes

iTunes

iTunes

WEBRip

iTunes

30
pack

Вам бонус

ВАЖНО

!!Акция!!

Alien_RageХит недели

RePack

Horizon Zero Dawn

ИГРА 18+

pack

RePack

jed

!!Акция!!

Alien_Rage

RePack

fifa19

RePack

Assassins Creed: Odyssey

RePack

NEED FOR SPEED™ PAYBACK

4 сезон

9 сезон

Бесстыжие 9 сезон

Все сериалы

все сериалы на PB.wtf

RePack

FAR CRY 5
  

Для вашего блага / Es por tu bien (Карлос Терон) [2017, комедия, BDRip 720p] MVO ["Синема УС] pb.wtf

Для вашего блага через торрент pb.wtf

Размер: 4.13 GB | Добавлен: 2 года 7 мес. назад | Торрент скачан:64 раза
Скачать  

14-02-2018 10:45 Для вашего блага Скачать торрент  

Для вашего блага / Es por tu bienГод выпуска: 2017
Страна: Испания
Жанр: комедия
Продолжительность: 01:33:38
Перевод: Любительский (многоголосый) ["Синема УС]
Субтитры: отсутствуют

Режиссер: Карлос Терон

rating

В ролях:

Хавьер Камара, Хосе Коронадо, Роберто Аламо, Пилар Кастро, Мария Пухальте, Кармен Руис, Сильвия Алонсо, Джорджина Аморос, Андреа Рос, Мики Эспарбе

Описание:

Худший кошмар, который может случиться с отцом, - его дочь вырастет и в один прекрасный день заведёт себе парня. А этим засранцам от девочек нужно только одно! Именно такой день случился у отцов трёх девушек: Валентины, Сарайи и Марты. Эти милые девочки решили выбросить своё будущее на свалку и связаться с какими-то непонятными типами. Единственный выход для отцов – объединиться и вместе избавиться от назойливых женишков!

Качество: BDRip 720p
Формат: MKV

Видео: 5861 Кбит/с, 1280x536
Аудио#1: AC3, 2 ch, 448 Кбит/с

скриншот  скриншот  скриншот  

Общее
Уникальный идентификатор : 173526925506515018988164701483987447878 (0x828C11F8908AB20E88BF6696E73D3046)
Полное имя : D:\Es.por.tu.bien.2O17.P.BDRip.72Op_KOSHARA.mkv
Формат : Matroska
Версия формата : Version 2
Размер файла : 4,13 Гбайт
Продолжительность : 1 ч. 33 м.
Режим общего битрейта : Переменный
Общий поток : 6311 Кбит/сек
Дата кодирования : UTC 2018-02-13 15:59:25
Программа кодирования : mkvmerge v8.3.0 ('Over the Horizon') 64bit
Библиотека кодирования : libebml v1.3.1 + libmatroska v1.4.2

Видео
Идентификатор : 1
Формат : AVC
Формат/Информация : Advanced Video Codec
Профиль формата : High@L4.1
Параметр CABAC формата : Да
Параметр ReFrames формата : 4 кадра
Идентификатор кодека : V_MPEG4/ISO/AVC
Продолжительность : 1 ч. 33 м.
Вид битрейта : Переменный
Битрейт : 5861 Кбит/сек
Максимальный битрейт : 6300 Кбит/сек
Ширина : 1280 пикселей
Высота : 536 пикселей
Соотношение сторон : 2,40:1
Режим частоты кадров : Постоянный
Частота кадров : 23,976 (24000/1001) кадра/сек
Стандарт вещания : Component
Цветовое пространство : YUV
Субдискретизация насыщенности : 4:2:0
Битовая глубина : 8 бит
Тип развёртки : Прогрессивная
Бит/(Пиксели*Кадры) : 0.349
Размер потока : 3,75 Гбайт (91%)
Default : Да
Forced : Нет
Цветовой диапазон : Limited
Основные цвета : BT.709
Характеристики трансфера : BT.709
Коэффициенты матрицы : BT.709

Аудио
Идентификатор : 2
Формат : AC-3
Формат/Информация : Audio Coding 3
Расширение режима : CM (complete main)
Параметр Endianness формата : Big
Идентификатор кодека : A_AC3
Продолжительность : 1 ч. 33 м.
Вид битрейта : Постоянный
Битрейт : 448 Кбит/сек
Каналы : 2 канала
Расположение каналов : Front: L R
Частота : 48,0 КГц
Частота кадров : 31,250 кадров/сек (1536 spf)
Метод сжатия : С потерями
Размер потока : 300 Мбайт (7%)
Default : Да
Forced : Нет

pb.wtf



Скачать Для вашего блага через торрент http://img12.lostpic.net/2018/02/14/f96318a750ab3ca3a37f5b67b5200de9.jpg Скачать фильм Для вашего блага через торрент бесплантно в хорошем качестве Описание: Худший кошмар, который может случиться с отцом, - его дочь вырастет и в один прекрасный день заведёт себе парня. А этим засранцам ... 7.8 10 4
Торрент: Зарегистрирован [2018-02-14 10:45] · скачан: 64 раз
Статус: # сомнительно
Размер: 4.13 GB
Как cкачать? Как скачать Для вашего блага через торрент | qTorrent

% Раздел Тема Автор DL S | L
T Фильмы (мультфильмы) cо спонсором показа (Новинки AVI/MKV) [ 1.37 GB ] Для вашего блага / Es por tu bien [2017 HDRip] MVO ["Синема УС] bober100 Скачать
1 | 0

28-11-2019 20:33  

Отключить всю рекламу на сайте

    Дорогой пользователь! Огромная просьба, поблагодарите релизера, оцените раздачу и оставьте свои комментарий, если Вы скачали Для вашего блага через торрент бесплатно! Внесите свою лепту в развитие PiratBit!
    Комментировать посты могут только пользователи прошедшие не сложную регистрацию
    Показать сообщения:    

    Для вашего блага через торрент
    Скачать бесплатно Для вашего блага
    Для вашего блага скачать торрент
    Для вашего блага смотреть онлайн
    Cкачать фильм Для вашего блага бесплатно
    Для вашего блага скачать торрент в хорошем качестве
    Для вашего блага смотреть онлайн бесплатно в хорошем качестве


    Вы не можете начинать темы
    Вы не можете отвечать на сообщения
    Вы не можете редактировать свои сообщения
    Вы не можете удалять свои сообщения
    Вы не можете голосовать в опросах
    Вы не можете прикреплять файлы к сообщениям
    Вы можете скачивать файлы