Мега распродажа FORZA HORIZON 4 ULTIMATE+ВСЕ DLC+ОНЛАЙН всего за 499р. 349 руб. (супер цена). Внимание количество ограничено!!!

iTunes

1+1

iTunes

мы

iTunes

1

1 сезон

Чернобыль

1 сезон

Ральф против интернета

Лицензия

ПШазам

8 сезон

Игра престолов

Лицензия

30
pack

ВАЖНО

!!Акция!!

Alien_RageХит недели

RePack

Resident Evil 21

ИГРА 18+

pack

RePack

Metro:Exodus

!!Акция!!

Alien_Rage

RePack

fifa19

RePack

Assassins Creed: Odyssey

RePack

NEED FOR SPEED™ PAYBACK

3 сезон

9 сезон

Бесстыжие 9 сезон

Все сериалы

все сериалы на PB.wtf

RePack

FAR CRY 5
Ребята, катастрофически не хватает 2730р. для оплаты серверов за ИЮНЬ (всвязи с блокировками трафик упал в 3 раза), 1-2р., выручайте.
  

Модернисты / The Moderns (Алан Рудольф) [1988 г., драма, мелодрама, комедия, HDRip] DUB, MVO, DVO pb.wtf

Модернисты через торрент pb.wtf

Размер: 2.18 GB | Добавлен: 1 год 5 мес. назад | Торрент скачан:3 раза
Скачать  

14-02-2018 17:38 Модернисты Скачать торрент  

Модернисты / The Moderns
Год выпуска: 1988
Страна: США
Жанр: драма, мелодрама, комедия
Продолжительность: 02:06:25
Перевод: Дублированный, профессиональный многоголосый, профессиональный двухголосый

Режиссер: Алан Рудольф

rating

В ролях: Кит Кэрредин, Линда Фиорентино, Уоллес Шон, Женевьев Бюжо, Джеральдин Чаплин, Кевин Дж. О`Коннор, Джон Лоун, Шарлели Кутюр, Эльза Рэйвен, Эли Джирон, Гейлард Сартейн, Майкл Уилсон, Роберт Гулд, Антония Дофен, Вероника Бельгард, Изабель Серра, Дэвид Стейн, Хьюберт Луизелл

Описание: Артистический мир Парижа 20-х годов предстает перед зрителем как обобщающий образ, романтический мир, в котором живет группа американцев в самое интересное время новаторства и творческой активности. Ник Харт никак не может добиться признания как художник. Журналист Уазо, пишущий для «Трибун» о светских сплетнях, мечтает только о Голливуде. Бертрам Стоун — элегантный, богатый торговец предметами искусства со склонностью к насилию. Его жена, Рэйчел, с которой у Ника есть прошлое и, как он надеется, будущее. Сам Эрнест Хемингуэй пишет за стойкой бара. Важны образы Либби, обедневшей галерейщицы, и Натали, покровительницы искусств, подбивающей Ника подделать несколько картин.

Качество: HDRip
Формат: AVI
Видео: XviD, 1874 Кбит/с, 704x384, 23.976 кадр/с
Аудио #1: AC3, 2 ch, 192 Кбит/с | Дублированный (Ленфильм)
Аудио #2: AC3, 2 ch, 192 Кбит/с | Профессиональный двухголосый (СВ-Кадр)
Аудио #3: AC3, 2 ch, 192 Кбит/с | Профессиональный многоголосый (Vintage)
Релиз от: Koenig
скриншот   скриншот   скриншот   скриншот   скриншот   скриншот  

Общее
Полное имя : The.Moderns.1988.HDRip.avi
Формат : AVI
Формат/Информация : Audio Video Interleave
Профиль формата : OpenDML
Размер файла : 2,18 Гбайт
Продолжительность : 2 ч. 6 м.
Общий поток : 2474 Кбит/сек
Программа кодирования : VirtualDubMod 1.5.10.2 (build 2540/release)
Библиотека кодирования : VirtualDubMod build 2540/release

Видео
Идентификатор : 0
Формат : MPEG-4 Visual
Профиль формата : Advanced Simple@L5
Параметр BVOP формата : 1
Параметр QPel формата : Нет
Параметр GMC формата : Без точки перехода
Параметр матрицы формата : Выборочная
Идентификатор кодека : XVID
Идентификатор кодека/Подсказка : XviD
Продолжительность : 2 ч. 6 м.
Битрейт : 1874 Кбит/сек
Ширина : 704 пикселя
Высота : 384 пикселя
Соотношение сторон : 1,85:1
Частота кадров : 23,976 (24000/1001) кадра/сек
Цветовое пространство : YUV
Субдискретизация насыщенности : 4:2:0
Битовая глубина : 8 бит
Тип развёртки : Прогрессивная
Метод сжатия : С потерями
Бит/(Пиксели*Кадры) : 0.289
Размер потока : 1,65 Гбайт (76%)
Библиотека кодирования : XviD 65

Аудио #1
Идентификатор : 1
Формат : AC-3
Формат/Информация : Audio Coding 3
Параметр Endianness формата : Big
Идентификатор кодека : 2000
Продолжительность : 2 ч. 6 м.
Вид битрейта : Постоянный
Битрейт : 192 Кбит/сек
Каналы : 2 канала
Расположение каналов : Front: L R
Частота : 48,0 КГц
Частота кадров : 31,250 кадров/сек (1536 spf)
Битовая глубина : 16 бит
Метод сжатия : С потерями
Размер потока : 174 Мбайт (8%)
Выравнивание : Разделение по промежуткам
Продолжительность промежутка : 42 мс. (1,00 видеокадр)
Время предзагрузки промежутка : 500 мс.
ServiceKind/String : Complete Main

Аудио #2
Идентификатор : 2
Формат : AC-3
Формат/Информация : Audio Coding 3
Параметр Endianness формата : Big
Идентификатор кодека : 2000
Продолжительность : 2 ч. 6 м.
Вид битрейта : Постоянный
Битрейт : 192 Кбит/сек
Каналы : 2 канала
Расположение каналов : Front: L R
Частота : 48,0 КГц
Частота кадров : 31,250 кадров/сек (1536 spf)
Битовая глубина : 16 бит
Метод сжатия : С потерями
Размер потока : 174 Мбайт (8%)
Выравнивание : Разделение по промежуткам
Продолжительность промежутка : 42 мс. (1,00 видеокадр)
Время предзагрузки промежутка : 500 мс.
ServiceKind/String : Complete Main

Аудио #3
Идентификатор : 3
Формат : AC-3
Формат/Информация : Audio Coding 3
Параметр Endianness формата : Big
Идентификатор кодека : 2000
Продолжительность : 2 ч. 6 м.
Вид битрейта : Постоянный
Битрейт : 192 Кбит/сек
Каналы : 2 канала
Расположение каналов : Front: L R
Частота : 48,0 КГц
Частота кадров : 31,250 кадров/сек (1536 spf)
Битовая глубина : 16 бит
Метод сжатия : С потерями
Размер потока : 174 Мбайт (8%)
Выравнивание : Разделение по промежуткам
Продолжительность промежутка : 42 мс. (1,00 видеокадр)
Время предзагрузки промежутка : 500 мс.
ServiceKind/String : Complete Main

pb.wtf



Скачать Модернисты через торрент http://img12.lostpic.net/2018/02/14/f0a5e123e0bc4d235602ce1832b6e18b.jpg Скачать фильм Модернисты через торрент бесплантно в хорошем качестве Описание: Артистический мир Парижа 20-х годов предстает перед зрителем как обобщающий образ, романтический мир, в котором живет группа ... 9.5 10 2
Info! Золотая раздача, скачанное не засчитывается.
Торрент: Зарегистрирован [2018-02-14 17:38] · скачан: 3 раз
Статус: √ проверено
Размер: 2.18 GB
Как cкачать? Как скачать Модернисты через торрент | qTorrent


>> Регистрируемся здесь <<






Отзывы и комментарии о схеме читаем и пишем здесь: ---> Отзывы и комментарии о схеме

Новые благодарочки в телеграм довольных пользователей:
скриншот   скриншот   скриншот   скриншот   скриншот

16-02-2018 09:53 Модернисты Скачать торрент  

Отличный фильм, прекрасные артисты, смотрится легко и с интересом. Качество рипа хорошее, РЕКЛАМЫ НЕТ. Спасибо за раздачу.pb.wtf



    Дорогой пользователь! Огромная просьба, поблагодарите релизера, оцените раздачу и оставьте свои комментарий, если Вы скачали Модернисты через торрент бесплатно! Внесите свою лепту в развитие PiratBit!
    Комментировать посты могут только пользователи прошедшие не сложную регистрацию
    Показать сообщения:    

    Модернисты через торрент
    Скачать бесплатно Модернисты
    Модернисты скачать торрент
    Модернисты смотреть онлайн
    Cкачать фильм Модернисты бесплатно
    Модернисты скачать торрент в хорошем качестве
    Модернисты смотреть онлайн бесплатно в хорошем качестве


    Вы не можете начинать темы
    Вы не можете отвечать на сообщения
    Вы не можете редактировать свои сообщения
    Вы не можете удалять свои сообщения
    Вы не можете голосовать в опросах
    Вы не можете прикреплять файлы к сообщениям
    Вы можете скачивать файлы