Ссылка на приватное зеркало всего за 1$. Внимание количество ограничено!!!

OK

1+1

iTunes

мы

OK

1

WEB-DLRip

Джокер

Пифагор

Ведьмак / The Witcher сериал

Лицензия

ПШазам

ОК

Оно 2

iTunes

30
pack

Вам бонус

ВАЖНО

!!Акция!!

Alien_RageХит недели

RePack

Resident Evil 21

ИГРА 18+

pack

RePack

jed

!!Акция!!

Alien_Rage

RePack

fifa19

RePack

Assassins Creed: Odyssey

RePack

NEED FOR SPEED™ PAYBACK

4 сезон

9 сезон

Бесстыжие 9 сезон

Все сериалы

все сериалы на PB.wtf

RePack

FAR CRY 5
  

Бойся своих желаний / Шкатулка / Wish Upon (Джон Р. Леонетти) [2017, ужасы, фэнтези, триллер, BDRip 720p] DUB [Line] pb.wtf

Бойся своих желаний через торрент pb.wtf

Размер: 4 GB | Добавлен: 1 год 11 мес. назад | Торрент скачан:190 раз
Скачать  

14-02-2018 18:43 Бойся своих желаний Скачать торрент  

Бойся своих желаний / Шкатулка / Wish UponГод выпуска: 2017
Страна: США, Канада
Жанр: ужасы, фэнтези, триллер
Продолжительность: 01:30:57
Перевод: Дубляж - [Line]
Субтитры: отсутствуют

Режиссер: Джон Р. Леонетти

rating

В ролях:

Джои Кинг, Райан Филипп, Ли Ги-хон, Митчелл Слаггерт, Шеннон Пёрсер, Сидни Парк, Элизабет Рём, Жозефин Лангфорд, Александр Нунез, Даниэла Барбоза

Описание:

Тихая неудачница Клэр получает в подарок от отца старинную шкатулку. К ее удивлению оказывается, что шкатулка умеет исполнять желания. Теперь-то она расквитается со всеми, кто над ней смеялся. Желания исполняются, но не совсем так, как задумывала Клэр, и с каждым новым желанием последствия становятся все страшнее. Какую еще плату попросит шкатулка взамен, и что за древнее зло скрывается в ней?

Качество: BDRip 720p
Формат: MKV
Видео кодек: H.264
Аудио кодек: AC3

Видео: 5850 Кбит/с, 1280x534
Аудио#1: Русский, (AC3, 2 ch, 448 Кбит/с)

скриншот  скриншот  скриншот  

Общее
Уникальный идентификатор : 209355107912904066693321880686677512770 (0x9D8053BF0D953277848EFA10C46CD242)
Полное имя : D:\ShkaTuLka.2O17.D.BDRip.72Op_KOSHARA.mkv
Формат : Matroska
Версия формата : Version 2
Размер файла : 4,00 Гбайт
Продолжительность : 1 ч. 30 м.
Режим общего битрейта : Переменный
Общий поток : 6300 Кбит/сек
Дата кодирования : UTC 2018-02-14 09:43:46
Программа кодирования : mkvmerge v8.3.0 ('Over the Horizon') 64bit
Библиотека кодирования : libebml v1.3.1 + libmatroska v1.4.2

Видео
Идентификатор : 1
Формат : AVC
Формат/Информация : Advanced Video Codec
Профиль формата : High@L4.1
Параметр CABAC формата : Да
Параметр ReFrames формата : 4 кадра
Идентификатор кодека : V_MPEG4/ISO/AVC
Продолжительность : 1 ч. 30 м.
Вид битрейта : Переменный
Битрейт : 5850 Кбит/сек
Максимальный битрейт : 6500 Кбит/сек
Ширина : 1280 пикселей
Высота : 534 пикселя
Соотношение сторон : 2,40:1
Режим частоты кадров : Постоянный
Частота кадров : 23,976 (24000/1001) кадра/сек
Стандарт вещания : Component
Цветовое пространство : YUV
Субдискретизация насыщенности : 4:2:0
Битовая глубина : 8 бит
Тип развёртки : Прогрессивная
Бит/(Пиксели*Кадры) : 0.349
Размер потока : 3,64 Гбайт (91%)
Default : Да
Forced : Нет
Цветовой диапазон : Limited
Основные цвета : BT.709
Характеристики трансфера : BT.709
Коэффициенты матрицы : BT.709

Аудио
Идентификатор : 2
Формат : AC-3
Формат/Информация : Audio Coding 3
Расширение режима : CM (complete main)
Параметр Endianness формата : Big
Идентификатор кодека : A_AC3
Продолжительность : 1 ч. 30 м.
Вид битрейта : Постоянный
Битрейт : 448 Кбит/сек
Каналы : 2 канала
Расположение каналов : Front: L R
Частота : 48,0 КГц
Частота кадров : 31,250 кадров/сек (1536 spf)
Метод сжатия : С потерями
Размер потока : 291 Мбайт (7%)
Default : Да
Forced : Нет

pb.wtf



Скачать Бойся своих желаний через торрент http://i99.fastpic.ru/big/2018/0113/3b/a95764ff29fd8c72ccaa9a745978633b.jpg Скачать фильм Бойся своих желаний через торрент бесплантно в хорошем качестве Описание: Тихая неудачница Клэр получает в подарок от отца старинную шкатулку. К ее удивлению оказывается, что шкатулка умеет исполнять ... 8.7 10 7
Торрент: Зарегистрирован [2018-02-14 18:43] · скачан: 190 раз
Статус: # сомнительно
Размер: 4 GB
Как cкачать? Как скачать Бойся своих желаний через торрент | qTorrent

% Раздел Тема Автор DL S | L
# Фильмы (мультфильмы) cо спонсором показа (Новинки AVI/MKV) [ 7.14 GB ] Бойся своих желаний / Шкатулка / Wish Upon [2017 BDRip 1080p] DUB [Line] bober100 Скачать
1 | 0
T Фильмы (WEB-DL 720p, 1080p) [ 3.32 GB ] Бойся своих желаний / Шкатулка / Wish Upon [2017 WEB-DL 1080p] DUB [Театральная версия] [Line] bober100 Скачать
3 | 0

28-11-2019 20:33  

Отключить всю рекламу на сайте


    Дорогой пользователь! Огромная просьба, поблагодарите релизера, оцените раздачу и оставьте свои комментарий, если Вы скачали Бойся своих желаний через торрент бесплатно! Внесите свою лепту в развитие PiratBit!
    Комментировать посты могут только пользователи прошедшие не сложную регистрацию
    Показать сообщения:    

    Бойся своих желаний через торрент
    Скачать бесплатно Бойся своих желаний
    Бойся своих желаний скачать торрент
    Бойся своих желаний смотреть онлайн
    Cкачать фильм Бойся своих желаний бесплатно
    Бойся своих желаний скачать торрент в хорошем качестве
    Бойся своих желаний смотреть онлайн бесплатно в хорошем качестве


    Вы не можете начинать темы
    Вы не можете отвечать на сообщения
    Вы не можете редактировать свои сообщения
    Вы не можете удалять свои сообщения
    Вы не можете голосовать в опросах
    Вы не можете прикреплять файлы к сообщениям
    Вы можете скачивать файлы