Ссылка на приватное зеркало всего за 1$. Внимание количество ограничено!!!

OK

1+1

iTunes

мы

OK

1

WEB-DLRip

Джокер

Пифагор

Ведьмак / The Witcher сериал

iTunes

ПШазам

ОК

Оно 2

iTunes

30
pack

Вам бонус

ВАЖНО

!!Акция!!

Alien_RageХит недели

RePack

Resident Evil 21

ИГРА 18+

pack

RePack

jed

RePack

fifa19

RePack

Assassins Creed: Odyssey

RePack

NEED FOR SPEED™ PAYBACK

4 сезон

9 сезон

Бесстыжие 9 сезон

Все сериалы

все сериалы на PB.wtf

RePack

FAR CRY 5
  

По пятам 2 / Бегущие по краю / Hong yi xiao nu hai 2 (Чэн Вэйхао) [2017, ужасы, триллер, WEB-DL 720p] MVO ["Синема УС"] pb.wtf

По пятам 2 через торрент pb.wtf

Размер: 2.73 GB | Добавлен: 1 год 11 мес. назад | Торрент скачан:52 раза
Скачать  

14-02-2018 19:04 По пятам 2 Скачать торрент  

По пятам 2 / Бегущие по краю / Hong yi xiao nu hai 2Год выпуска: 2017
Страна: Тайвань
Жанр: ужасы, триллер
Продолжительность: 01:21:16
Перевод: Любительский (многоголосый) ["Синема УС"]
Субтитры: отсутствуют

Режиссер: Чэн Вэйхао

rating

В ролях:

Рэйни Ян, Тиффани Сюй, Франческа Као, Лун Шаохуа, Ривер Хуан, Тен-Хю Хуан, Лю Иньшан

Описание:

Когда в маленьком американском городке пропадает 12-летняя девочка, детектив Рейчел Уиллоу обнаруживает, что в корне этого преступления лежит нечто ужасное, то, что, казалось бы, невозможно в столь тесном сообществе, то, что кажется немыслимым в 21 веке - торговля людьми.

Качество: WEB-DL 720p
Формат: MKV
Видео кодек: H.264
Аудио кодек: AC3

Видео: 4425 Кбит/с, 1280x534
Аудио#1: AC3, 2 ch, 384 Кбит/с

скриншот  скриншот  скриншот  

Общее
Уникальный идентификатор : 194876908691462506882276025209227888316 (0x929BED698D646639AF5977F9A5DCC6BC)
Полное имя : D:\Ridge.Runners.2018.P.WEB-DL.72Op_KOSHARA.mkv
Формат : Matroska
Версия формата : Version 2
Размер файла : 2,73 Гбайт
Продолжительность : 1 ч. 21 м.
Режим общего битрейта : Переменный
Общий поток : 4811 Кбит/сек
Дата кодирования : UTC 2018-02-14 02:09:54
Программа кодирования : mkvmerge v8.3.0 ('Over the Horizon') 64bit
Библиотека кодирования : libebml v1.3.1 + libmatroska v1.4.2

Видео
Идентификатор : 1
Формат : AVC
Формат/Информация : Advanced Video Codec
Профиль формата : High@L4.1
Параметр CABAC формата : Да
Параметр ReFrames формата : 4 кадра
Идентификатор кодека : V_MPEG4/ISO/AVC
Продолжительность : 1 ч. 21 м.
Вид битрейта : Переменный
Битрейт : 4425 Кбит/сек
Максимальный битрейт : 5000 Кбит/сек
Ширина : 1280 пикселей
Высота : 534 пикселя
Соотношение сторон : 2,40:1
Режим частоты кадров : Постоянный
Частота кадров : 23,976 (24000/1001) кадра/сек
Стандарт вещания : Component
Цветовое пространство : YUV
Субдискретизация насыщенности : 4:2:0
Битовая глубина : 8 бит
Тип развёртки : Прогрессивная
Бит/(Пиксели*Кадры) : 0.264
Размер потока : 2,46 Гбайт (90%)
Default : Да
Forced : Нет
Цветовой диапазон : Limited
Основные цвета : BT.709
Характеристики трансфера : BT.709
Коэффициенты матрицы : BT.709

Аудио
Идентификатор : 2
Формат : AC-3
Формат/Информация : Audio Coding 3
Расширение режима : CM (complete main)
Параметр Endianness формата : Big
Идентификатор кодека : A_AC3
Продолжительность : 1 ч. 21 м.
Вид битрейта : Постоянный
Битрейт : 384 Кбит/сек
Каналы : 2 канала
Расположение каналов : Front: L R
Частота : 48,0 КГц
Частота кадров : 31,250 кадров/сек (1536 spf)
Метод сжатия : С потерями
Размер потока : 223 Мбайт (8%)
Default : Да
Forced : Нет

pb.wtf



Скачать По пятам 2 через торрент http://img12.lostpic.net/2018/02/14/89e70c0d68769c46f8ef46a994e0172f.jpg Скачать фильм По пятам 2 через торрент бесплантно в хорошем качестве Описание:Когда в маленьком американском городке пропадает 12-летняя девочка, детектив Рейчел Уиллоу обнаруживает, что в корне этого ... 6.3 10 6
Торрент: Зарегистрирован [2018-02-14 19:04] · скачан: 52 раз
Статус: T временная
Размер: 2.73 GB
Как cкачать? Как скачать По пятам 2 через торрент | qTorrent

% Раздел Тема Автор DL S | L
T Фильмы (мультфильмы) cо спонсором показа (Новинки AVI/MKV) [ 1.36 GB ] По пятам 2 / Бегущие по краю / Hong yi xiao nu hai 2 [2017 WEB-DLRip] MVO ["Синема УС"] bober100 Скачать
1 | 0

28-11-2019 20:33  

Отключить всю рекламу на сайте

    Дорогой пользователь! Огромная просьба, поблагодарите релизера, оцените раздачу и оставьте свои комментарий, если Вы скачали По пятам 2 через торрент бесплатно! Внесите свою лепту в развитие PiratBit!
    Комментировать посты могут только пользователи прошедшие не сложную регистрацию
    Показать сообщения:    

    По пятам 2 через торрент
    Скачать бесплатно По пятам 2
    По пятам 2 скачать торрент
    По пятам 2 смотреть онлайн
    Cкачать фильм По пятам 2 бесплатно
    По пятам 2 скачать торрент в хорошем качестве
    По пятам 2 смотреть онлайн бесплатно в хорошем качестве


    Вы не можете начинать темы
    Вы не можете отвечать на сообщения
    Вы не можете редактировать свои сообщения
    Вы не можете удалять свои сообщения
    Вы не можете голосовать в опросах
    Вы не можете прикреплять файлы к сообщениям
    Вы можете скачивать файлы