Ссылка на приватное зеркало нашего сайта всего за 1$. Внимание количество ограничено!!!

2 сезон

iTunes

1 сезон

1

2 сезон

2 сезон

iTunes

1 сезон

RePack

30

Ultimate

ВАЖНО

ИГРА 18+

pack

RePack

MK11
pack

Забери бонус

RePack

jed

!!Акция!!

Alien_Rage

RePack

fifa19

RePack

Assassins Creed: Odyssey

RePack

NEED FOR SPEED™ PAYBACK

4 сезон

9 сезон

Бесстыжие 9 сезон

Все сериалы

все сериалы на PB.wtf

RePack

FAR CRY 5
  

Звёздный путь: Дискавери / Star Trek: Discovery / Сезон: 1 / Серии: 1-15 из 15 (Акива Голдсман, Адам Кэйн, Ли Роуз) [2017, Фантастика, WEB-DLRip] MVO [Lostfilm] pb.wtf

Звёздный путь: Дискавери через торрент pb.wtf

Размер: 9.65 GB | Добавлен: 2 года 9 мес. назад | Торрент скачан:252 раза
Скачать  

15-02-2018 02:23 Звёздный путь: Дискавери Скачать торрент  

Звёздный путь: Дискавери / Star Trek: DiscoveryГод выпуска: 2017
Страна: США
Жанр: Фантастика
Продолжительность: 15 x ~ 00:42:00
Перевод: Профессиональный многоголосый -
Субтитры: Отсутствуют
Реклама: отсутствует.

Режиссер: Акива Голдсман, Адам Кэйн, Ли Роуз

rating

В ролях:

Джейсон Айзекс, Даг Джонс, Шазад Латиф, Сонекуа Мартин-Грин, Молик Панчоли, Энтони Рэпп, Мишель Йео, Кеннет Митчелл, Дэймон Рунян

Описание:

За 10 лет до начала истории, описанной в оригинальном сериале «Звёздный путь», экипаж корабля USS Discovery NCC-1031 отправляется в путешествие, чтобы изучать глубокий космос и открыть новые миры и цивилизации.


Качество: WEB-DLRip
Формат: AVI

Видео: 720x400 , 23.976 fps, XviD ~1844 kbps avg
Аудио: MP3, 48.0 KHz, 2 ch, 192 kbps
скриншот   скриншот   скриншот  

Общее
Полное имя : D:\Star Trek. Discovery (Звёздный путь. Дискавери)\Star.Trek.Discovery.S01E01.rus.LostFilm..avi
Формат : AVI
Формат/Информация : Audio Video Interleave
Размер файла : 622 Мбайт
Продолжительность : 43 м. 0 с.
Режим общего битрейта : Переменный
Общий поток : 2023 Кбит/сек
Программа кодирования : Nandub v1.0rc2
Библиотека кодирования : Nandub build 1853/release

Видео
Идентификатор : 0
Формат : MPEG-4 Visual
Профиль формата : Advanced Simple@L5
Параметр BVOP формата : Нет
Параметр QPel формата : Нет
Параметр GMC формата : Без точки перехода
Параметр матрицы формата : Default (MPEG)
Идентификатор кодека : XVID
Идентификатор кодека/Подсказка : XviD
Продолжительность : 43 м. 0 с.
Битрейт : 1823 Кбит/сек
Ширина : 720 пикселей
Высота : 400 пикселей
Соотношение сторон : 16:9
Частота кадров : 23,976 (23976/1000) кадра/сек
Цветовое пространство : YUV
Субдискретизация насыщенности : 4:2:0
Битовая глубина : 8 бит
Тип развёртки : Прогрессивная
Метод сжатия : С потерями
Бит/(Пиксели*Кадры) : 0.264
Размер потока : 561 Мбайт (90%)
Библиотека кодирования : XviD 1.2.1 (UTC 2008-12-04)

Аудио
Идентификатор : 1
Формат : MPEG Audio
Версия формата : Version 1
Профиль формата : Layer 3
Режим : Joint stereo
Расширение режима : MS Stereo
Идентификатор кодека : 55
Идентификатор кодека/Подсказка : MP3
Продолжительность : 43 м. 0 с.
Вид битрейта : Переменный
Битрейт : 192 Кбит/сек
Каналы : 2 канала
Частота : 48,0 КГц
Метод сжатия : С потерями
Размер потока : 57,7 Мбайт (9%)
Выравнивание : Соединение по промежуткам
Продолжительность промежутка : 24 мс. (0,58 видеокадр)
Время предзагрузки промежутка : 479 мс.
Библиотека кодирования : LAME3.97b
Настройки программы : -m j -V 4 -q 3 -lowpass 18.6 --abr 192

pb.wtf



Скачать Звёздный путь: Дискавери через торрент http://i89.fastpic.ru/big/2017/0927/fb/c6ac08fd0bc9d3ace81803a075f002fb.jpg Скачать фильм Звёздный путь: Дискавери через торрент бесплантно в хорошем качестве Описание: За 10 лет до начала истории, описанной в оригинальном сериале «Звёздный путь», экипаж корабля USS Discovery NCC-1031 отправляется ... 9.9 10 12
Торрент: Зарегистрирован [2018-02-15 02:23] · скачан: 252 раз
Статус: √ проверено
Размер: 9.65 GB
Как cкачать? Как скачать Звёздный путь: Дискавери через торрент | qTorrent

% Раздел Тема Автор DL S | L
Зарубежные сериалы [ 24.4 GB ] Звёздный путь: Дискавери / Star Trek: Discovery / Сезон: 2 / Серии: 1-7 из 15 [2019 WEB-DL 1080p] MVO [Jaskier] bober100 Скачать
1 | 0
Зарубежные сериалы [ 148.51 GB ] Звёздный путь: Дискавери / Star Trek: Discovery / Сезон: 1 / Серии: 1-15 из 15 [2017 BD Remux 1080p] 2xMVO [SDI Media LostFilm] bober100 Скачать
1 | 0
Зарубежные сериалы [ 25.27 GB ] Звёздный путь: Дискавери / Star Trek: Discovery / Сезон 1 / Серии 1-15 из 15 [2017 WEB-DLRip 1080p] [MVO] killermax2013 Скачать
1 | 0
Зарубежные сериалы [ 8.33 GB ] Звёздный путь: Дискавери / Star Trek: Discovery / Сезон 1 / Серии 1-15 из 15 [2017 WEBRip] [MVO] killermax2013 Скачать
1 | 0
Зарубежные сериалы [ 7.68 GB ] Звёздный путь: Дискавери / Star Trek: Discovery / Сезон: 1 / Серии: 1-15 из 15 [2017 WEBRip] DVO [Gears Media] bober100 Скачать
1 | 0
Зарубежные сериалы [ 28.7 GB ] Звёздный путь: Дискавери / Star Trek: Discovery / Сезон: 1 / Серии: 1-15 из 15 [2017 WEB-DL 1080p] MVO [LostFilm] bober100 Скачать
1 | 0
Зарубежные сериалы [ 8.02 GB ] Звёздный путь: Дискавери / Star Trek: Discovery / Сезон: 1 / Серии: 1-15 из 15 [2017 WEB-DLRip] MVO [SDI Media] bober100 Скачать
1 | 0

28-11-2019 20:33  

Отключить всю рекламу на сайте

07-02-2019 11:13 Звёздный путь: Дискавери Скачать торрент  

в 5 эпизоде ахтунги - грибник и врач...тьфу
и до космоса добрались..pb.wtf



    Дорогой пользователь! Огромная просьба, поблагодарите релизера, оцените раздачу и оставьте свои комментарий, если Вы скачали Звёздный путь: Дискавери через торрент бесплатно! Внесите свою лепту в развитие PiratBit!
    Комментировать посты могут только пользователи прошедшие не сложную регистрацию
    Показать сообщения:    

    Звёздный путь: Дискавери через торрент
    Скачать бесплатно Звёздный путь: Дискавери
    Звёздный путь: Дискавери скачать торрент
    Звёздный путь: Дискавери смотреть онлайн
    Cкачать фильм Звёздный путь: Дискавери бесплатно
    Звёздный путь: Дискавери скачать торрент в хорошем качестве
    Звёздный путь: Дискавери смотреть онлайн бесплатно в хорошем качестве


    Вы не можете начинать темы
    Вы не можете отвечать на сообщения
    Вы не можете редактировать свои сообщения
    Вы не можете удалять свои сообщения
    Вы не можете голосовать в опросах
    Вы не можете прикреплять файлы к сообщениям
    Вы можете скачивать файлы