Достать ножи: Стеклянная луковица

MVO

Добыча

Дубляж

Уэнсдэй

1 сезон

Тор

Дубляж

13 клиническая

1 сезон

Жестокая ночь

MVO

Одни из нас

1 сезон

Deluxe

pack

Рекомендуем

30

Пиратка

ВАЖНО

ВАЖНО

Ghostwire

Пиратка

jed

RePack

nioh2

RePack

RDR2

RePack

NEED FOR SPEED™ PAYBACK

RePack

скачать торрент

Кинопоиск HD

Острые козырьки 6 сезон

6 сезон

FAR CRY 6

RePack

скачать торрент

Лицензия

скачать торрент

MVO

1

1 сезон

скачать торрент

1 сезон

скачать торрент

Лицензия

  

Три билборда на границе Эббинга, Миссури / Three Billboards Outside Ebbing, Missouri (Мартин МакДона) [2017, драма, комедия, криминал, HDRip-AVC] Дубляж [Лицензия], AVO [М.Яроцкий], Ukr - ExKinoRay

Три билборда на границе Эббинга, Миссури через торрент pb.wtf

Раздают: 1 [ 0 KB/s ]
Размер: 2.67 GB | Добавлен: 4 года 11 мес. назад | Торрент скачан:2796 раз
Смотреть онлайн | Скачать | Поддержите нас   

15-02-2018 05:52 Три билборда на границе Эббинга, Миссури Скачать торрент  

Название: Три билборда на границе Эббинга, Миссури
Оригинальное название: Three Billboards Outside Ebbing, Missouri
Год выхода: 2017
Жанр: драма, комедия, криминал
Страна: Великобритания, США
Продолжительность: 01:55:19
Перевод #1: Дубляж (лицензия)
Перевод #2: Aвторский (одноголосый) [Михаил Яроцкий]
(ненормативная лексика)
Перевод #3: Профессиональный многоголосый (Украинский)
Субтитры: Русские, английские
Режиссер: Мартин МакДона
В ролях: Фрэнсис МакДорманд, Калеб Лэндри Джонс, Керри Кондон, Сэм Рокуэлл, Алехандро Барриос, Джейсон Редфорд, Даррел Бритт-Гибсон, Вуди Харрельсон, Эбби Корниш, Рия Мэй Этвуд

Описание: Спустя несколько месяцев после убийства дочери Милдред Хейс преступники так и не найдены. Отчаявшаяся женщина решается на смелый шаг, арендуя на въезде в город три биллборда с посланием к авторитетному главе полиции Уильяму Уиллоуби. Когда в ситуацию оказывается втянут еще и заместитель шерифа, инфантильный маменькин сынок со склонностью к насилию, офицер Диксон, борьба между Милдред и властями города только усугубляется

Оскар, 2018 год
Номинации (7):
Лучший фильм
Лучшая женская роль (Фрэнсис МакДорманд)
Лучшая мужская роль второго плана (Сэм Рокуэлл)
Лучшая мужская роль второго плана (Вуди Харрельсон)
Лучший сценарий
Лучший монтаж
Лучший саундтрек

Золотой глобус, 2018 год
Победитель (4):
Лучший фильм (драма)
Лучшая женская роль (драма) ( Фрэнсис МакДорманд )
Лучшая мужская роль второго плана ( Сэм Рокуэлл )
Лучший сценарий
Номинации (2):
Лучший режиссер (Мартин МакДона)
Лучший саундтрек

Премия Гильдии актеров, 2018 год
Победитель (3):
Лучшая женская роль ( Фрэнсис МакДорманд )
Лучшая мужская роль второго плана ( Сэм Рокуэлл )
Лучший актерский состав
Номинации (1):
Лучшая мужская роль второго плана (Вуди Харрельсон)

Венецианский кинофестиваль, 2017 год
Победитель (1):
Лучший сценарий
Номинации (1):
Золотой лев

Сан-Себастьян, 2017 год
Победитель (1):
Приз зрительских симпатий за лучший фильм
Файл
Формат: mkv
Качество: HDRip-AVC
Видео: AVC, 1024x428 (2.40:1), 23.976 fps, ~1645 Kbps (0.157 bit/pixel)
Аудио #1: AC-3, 48.0 KHz, 5.1 ch, 448 Kbps, CBR - Дублированный (лицензия)
Аудио #1: AC-3, 48.0 KHz, 5.1 ch, 384 Kbps, CBR - Авторский одноголосый (Михаил Яроцкий aka kyberpunk [ненормативная лексика])
Аудио #2: Украинский (AC-3, 48.0 KHz, 5.1 ch, 384 Kbps, CBR) Профессиональный многоголосый
Аудио #3: Английский (AC-3, 48.0 KHz, 5.1 ch, 448 Kbps, CBR) Оригинал
General
Unique ID : 246690761109232428732980243672861973148 (0xB996E991E4837F4D9DED3FE50FB31A9C)
Complete name : D:\Three.Billboards.Outside.Ebbing.Missouri.2017.2xRus.HDRip.AVC.ExKinoRay.mkv
Format : Matroska
Format version : Version 2
File size : 2.67 GiB
Duration : 1 h 55 min
Overall bit rate : 3 311 kb/s
Movie name : Three Billboards Outside Ebbing Missouri 2017 from ExKinoRay
Encoded date : UTC 2018-02-15 21:09:51
Writing application : mkvmerge v5.6.0 ('Kenya Kane') built on May 27 2012 16:44:04
Writing library : libebml v1.2.3 + libmatroska v1.3.0

Video
ID : 1
Format : AVC
Format/Info : Advanced Video Codec
Format profile : [email protected]
Format settings, CABAC : Yes
Format settings, ReFrames : 12 frames
Codec ID : V_MPEG4/ISO/AVC
Duration : 1 h 55 min
Bit rate : 1 645 kb/s
Width : 1 024 pixels
Height : 428 pixels
Display aspect ratio : 2.40:1
Frame rate mode : Constant
Frame rate : 23.976 (23976/1000) FPS
Color space : YUV
Chroma subsampling : 4:2:0
Bit depth : 8 bits
Scan type : Progressive
Bits/(Pixel*Frame) : 0.157
Stream size : 1.27 GiB (48%)
Title : Enigma
Writing library : x264 core 152 r2851 ba24899
Encoding settings : cabac=1 / ref=12 / deblock=1:-2:-2 / analyse=0x3:0x113 / me=umh / subme=10 / psy=1 / psy_rd=1.05:0.10 / mixed_ref=1 / me_range=32 / chroma_me=1 / trellis=2 / 8x8dct=1 / cqm=0 / deadzone=21,11 / fast_pskip=0 / chroma_qp_offset=-3 / threads=12 / lookahead_threads=3 / sliced_threads=0 / nr=0 / decimate=0 / interlaced=0 / bluray_compat=0 / constrained_intra=0 / bframes=10 / b_pyramid=2 / b_adapt=2 / b_bias=0 / direct=3 / weightb=1 / open_gop=0 / weightp=2 / keyint=240 / keyint_min=23 / scenecut=40 / intra_refresh=0 / rc_lookahead=40 / rc=2pass / mbtree=0 / bitrate=1645 / ratetol=1.0 / qcomp=0.60 / qpmin=0 / qpmax=51 / qpstep=4 / cplxblur=20.0 / qblur=0.5 / vbv_maxrate=50000 / vbv_bufsize=62500 / nal_hrd=none / filler=0 / ip_ratio=1.40 / pb_ratio=1.30 / aq=3:0.90
Language : English
Default : Yes
Forced : No
Color range : Limited
Color primaries : BT.709
Transfer characteristics : BT.709
Matrix coefficients : BT.709

Audio #1
ID : 2
Format : AC-3
Format/Info : Audio Coding 3
Mode extension : CM (complete main)
Format settings, Endianness : Big
Codec ID : A_AC3
Duration : 1 h 55 min
Bit rate mode : Constant
Bit rate : 448 kb/s
Channel(s) : 6 channels
Channel positions : Front: L C R, Side: L R, LFE
Sampling rate : 48.0 kHz
Frame rate : 31.250 FPS (1536 spf)
Compression mode : Lossy
Stream size : 370 MiB (14%)
Title : Дубляж (License)
Language : Russian
Default : Yes
Forced : No

Audio #2
ID : 3
Format : AC-3
Format/Info : Audio Coding 3
Mode extension : CM (complete main)
Format settings, Endianness : Big
Codec ID : A_AC3
Duration : 1 h 55 min
Bit rate mode : Constant
Bit rate : 384 kb/s
Channel(s) : 6 channels
Channel positions : Front: L C R, Side: L R, LFE
Sampling rate : 48.0 kHz
Frame rate : 31.250 FPS (1536 spf)
Compression mode : Lossy
Stream size : 317 MiB (12%)
Title : AVO (Яроцкий)
Language : Russian
Default : No
Forced : No

Audio #3
ID : 4
Format : AC-3
Format/Info : Audio Coding 3
Mode extension : CM (complete main)
Format settings, Endianness : Big
Codec ID : A_AC3
Duration : 1 h 55 min
Bit rate mode : Constant
Bit rate : 384 kb/s
Channel(s) : 6 channels
Channel positions : Front: L C R, Side: L R, LFE
Sampling rate : 48.0 kHz
Frame rate : 31.250 FPS (1536 spf)
Compression mode : Lossy
Stream size : 317 MiB (12%)
Title : MVO
Language : Ukrainian
Default : No
Forced : No

Audio #4
ID : 5
Format : AC-3
Format/Info : Audio Coding 3
Mode extension : CM (complete main)
Format settings, Endianness : Big
Codec ID : A_AC3
Duration : 1 h 55 min
Bit rate mode : Constant
Bit rate : 448 kb/s
Channel(s) : 6 channels
Channel positions : Front: L C R, Side: L R, LFE
Sampling rate : 48.0 kHz
Frame rate : 31.250 FPS (1536 spf)
Compression mode : Lossy
Stream size : 370 MiB (14%)
Language : English
Default : No
Forced : No

Text #1
ID : 6
Format : UTF-8
Codec ID : S_TEXT/UTF8
Codec ID/Info : UTF-8 Plain Text
Title : Focs
Language : Russian
Default : No
Forced : No

Text #2
ID : 7
Format : UTF-8
Codec ID : S_TEXT/UTF8
Codec ID/Info : UTF-8 Plain Text
Language : English
Default : No
Forced : No

Menu
00:00:00.000 : en:00:00:00.000
00:05:42.092 : en:00:05:42.092
00:08:56.911 : en:00:08:56.911
00:12:50.019 : en:00:12:50.019
00:19:46.644 : en:00:19:46.644
00:23:43.547 : en:00:23:43.547
00:27:36.363 : en:00:27:36.363
00:31:35.769 : en:00:31:35.769
00:35:08.690 : en:00:35:08.690
00:40:54.827 : en:00:40:54.827
00:44:35.715 : en:00:44:35.715
00:49:18.789 : en:00:49:18.789
00:55:35.916 : en:00:55:35.916
00:59:56.134 : en:00:59:56.134
01:04:09.888 : en:01:04:09.888
01:10:55.293 : en:01:10:55.293
01:15:36.699 : en:01:15:36.699
01:23:08.734 : en:01:23:08.734
01:27:24.489 : en:01:27:24.489
01:35:49.702 : en:01:35:49.702
01:40:32.693 : en:01:40:32.693
01:44:02.194 : en:01:44:02.194
01:46:56.910 : en:01:46:56.910
01:49:55.005 : en:01:49:55.005
Релиз от:

Автор релиза: Enigma



Скачать Три билборда на границе Эббинга, Миссури через торрент http://b.radikal.ru/b19/1801/1c/d536d9b6006f.png Скачать, смотреть онлайн Три билборда на границе Эббинга, Миссури бесплантно в хорошем качестве Описание: Спустя несколько месяцев после убийства дочери Милдред Хейс преступники так и не найдены. Отчаявшаяся женщина решается на смелый ... 8.3 10 27
Info! Золотая раздача, скачанное не засчитывается.
Торрент: Зарегистрирован [2018-02-15 22:06] · скачан: 2 796 раз
Статус: √ проверено
Размер: 2.67 GB
Как cкачать? Как скачать Три билборда на границе Эббинга, Миссури через торрент | UTorrent

28-11-2019 20:33  


Отключить вcю реклaмy на сайте, в т.ч. и в плеере онлайн просмотра!

15-02-2018 22:07 Три билборда на границе Эббинга, Миссури Скачать торрент  

Добавлен дублированный (лицензия)



16-02-2018 20:36 Три билборда на границе Эббинга, Миссури Скачать торрент  

Очень хороший фильм, жаль нет концовки.



17-02-2018 02:39 Три билборда на границе Эббинга, Миссури Скачать торрент  

Дааа... с концовкой все испортили... а так фильм хороший и начальная задумка хорошая.
С этим фильмом как то так. Как будто пил очень вкусный сок, выпил... но не напился!



18-02-2018 06:58 Три билборда на границе Эббинга, Миссури Скачать торрент  

folax писал(а):

Очень хороший фильм, жаль нет концовки.

хороший фильм...и концовка есть...очень жаль что вы её не поняли...



18-02-2018 06:59 Три билборда на границе Эббинга, Миссури Скачать торрент  

kosar625 писал(а):

Дааа... с концовкой все испортили... а так фильм хороший и начальная задумка хорошая.
С этим фильмом как то так. Как будто пил очень вкусный сок, выпил... но не напился!

хороший фильм...и концовка есть...оченьжаль чтовы её не поняли.



19-02-2018 06:15 Три билборда на границе Эббинга, Миссури Скачать торрент  

Чем он хороший скучный помоему.



19-02-2018 14:52 Три билборда на границе Эббинга, Миссури Скачать торрент  

Рейтинг - в зашкале.
Актеры - агонь.
Но чувствую в зале
Странную вонь

Скажу я вам точно
Так пахнет картина
Желавшая очень
Призов Тарантино...

Зря время потратил,
Я злобно ворчу
Такое бы сладил
И наш Бондарчук

Достоин награды
Мартин МакДона
Какого-то имени типа
Ган...на



22-02-2018 10:37 Три билборда на границе Эббинга, Миссури Скачать торрент  

отличный фильм



28-02-2018 21:32 Три билборда на границе Эббинга, Миссури Скачать торрент  

Зря потраченое время...



06-03-2018 16:14 Три билборда на границе Эббинга, Миссури Скачать торрент  

заценим)



11-03-2018 20:12 Три билборда на границе Эббинга, Миссури Скачать торрент  

Шикарный фильм, прям кайфанул.



19-08-2018 04:37 Три билборда на границе Эббинга, Миссури Скачать торрент  

После просмотра этого фильма, кажется что в какашку наступил. Все так банально и читаемо, кроме концовки, вот концовка действительно удивила. 1/10



    Дорогой пользователь! Огромная просьба, поблагодарите релизера, оцените раздачу и оставьте свои комментарий, если Вы скачали Три билборда на границе Эббинга, Миссури через торрент бесплатно!!
    Комментировать посты могут только пользователи прошедшие не сложную регистрацию
    Показать сообщения:    


    Три билборда на границе Эббинга, Миссури через торрент
    Скачать бесплатно Три билборда на границе Эббинга, Миссури
    Три билборда на границе Эббинга, Миссури скачать торрент
    Три билборда на границе Эббинга, Миссури смотреть онлайн
    Cкачать фильм Три билборда на границе Эббинга, Миссури бесплатно
    Три билборда на границе Эббинга, Миссури скачать торрент в хорошем качестве
    Три билборда на границе Эббинга, Миссури смотреть онлайн бесплатно в хорошем качестве
    Вы не можете начинать темы
    Вы не можете отвечать на сообщения
    Вы не можете редактировать свои сообщения
    Вы не можете удалять свои сообщения
    Вы не можете голосовать в опросах
    Вы не можете прикреплять файлы к сообщениям
    Вы можете скачивать файлы
    Три билборда на границе Эббинга, Миссури / Three Billboards Outside Ebbing, Missouri [2017, драма, комедия, криминал, HDRip-AVC] Дубляж [Лицензия], AVO [М.Яроцкий], Ukr - ExKinoRay смотреть онлайн, скачать торрент picoco.icu