Ссылка на приватное зеркало нашего сайта всего за 1$. Внимание количество ограничено!!!

2 сезон

iTunes

1 сезон

1

2 сезон

2 сезон

iTunes

1 сезон

RePack

30

Ultimate

ВАЖНО

ИГРА 18+

pack

RePack

MK11
pack

Забери бонус

RePack

jed

!!Акция!!

Alien_Rage

RePack

fifa19

RePack

Assassins Creed: Odyssey

RePack

NEED FOR SPEED™ PAYBACK

4 сезон

9 сезон

Бесстыжие 9 сезон

Все сериалы

все сериалы на PB.wtf

RePack

FAR CRY 5
  

Библиотекари / The Librarians / Сезон: 4 / Серии: 1-12 из 12 (Дин Девлин, Марк Роскин, Джонатан Фрейкс) [2017, фантастика, приключения, WEBRip] DVO [Gears Media] pb.wtf

Библиотекари через торрент pb.wtf

Размер: 5.41 GB | Добавлен: 2 года 9 мес. назад | Торрент скачан:24 раза
Скачать  

15-02-2018 06:30 Библиотекари Скачать торрент  

Библиотекари / The LibrariansИнформация о фильме:

Название: Библиотекари
Оригинальное название: The Librarians
Год выпуска: 2017 (4 сезон)
Страна: США / Electric Entertainment
Жанр: фантастика, приключения
Продолжительность: ~ 00:43:00 серия
Перевод: Профессиональный (двухголосый) - [Gears Media]
Субтитры: отсутствуют

Режиссер: Дин Девлин, Марк Роскин, Джонатан Фрейкс

rating

В ролях:

Ребекка Ромин, Кристиан Кейн, Джон Ким, Линди Бут, Джон Ларрокетт, Ноа Уайли, Лесли-Энн Брандт, Боб Ньюхарт, Джейн Куртин, Мэтт Фрюэр, Триша Хелфер, Тайлер Мэйн, Шон МакГрат, Хейли Уэбб, Джеймс Суит

Описание:

Если зайти в здание нью-йоркской публичной библиотеки, повернуть направо, шагнуть в магический портал и спуститься в лифте на самый нижний этаж, то попадешь в Библиотеку - хранилище древних знаний и опасных магических артефактов. Там работают Библиотекарь и его помощники, которые спасают мир каждый день (по пятницам - дважды). Новый приключенческий сериал от канала TNT, основанный на персонажах всемирно известной серии фильмов Дэвида Титчера.

Информация о файле:

Качество: WEBRip
Формат: AVI
Видео кодек: XviD
Аудио кодек: MP3

Видео: 720x400 at 23.976 fps, ~1300 kbp
Аудио скриншот  RUS: MP3, 48 KHz, 2 ch, 128 kbps


скриншот   скриншот   скриншот   скриншот  

Общее
Полное имя : D:\The Librarians S04 (2017) WEBRip [Gears Media]\The Librarians S04E01 (2017) WEBRip [Gears Media].avi
Формат : AVI
Формат/Информация : Audio Video Interleave
Размер файла : 413 Мбайт
Продолжительность : 42 м. 34 с.
Общий поток : 1356 Кбит/сек
Программа кодирования : Lavf56.30.100

Видео
Идентификатор : 0
Формат : xvid
Идентификатор кодека : xvid
Продолжительность : 42 м. 34 с.
Битрейт : 1215 Кбит/сек
Ширина : 720 пикселей
Высота : 400 пикселей
Соотношение сторон : 16:9
Частота кадров : 23,976 кадра/сек
Тип развёртки : Прогрессивная
Бит/(Пиксели*Кадры) : 0.176
Размер потока : 370 Мбайт (90%)

Аудио
Идентификатор : 1
Формат : MPEG Audio
Версия формата : Version 1
Профиль формата : Layer 3
Режим : Joint stereo
Расширение режима : MS Stereo
Идентификатор кодека : 55
Идентификатор кодека/Подсказка : MP3
Продолжительность : 42 м. 34 с.
Вид битрейта : Постоянный
Битрейт : 128 Кбит/сек
Каналы : 2 канала
Частота : 48,0 КГц
Метод сжатия : С потерями
Размер потока : 39,0 Мбайт (9%)
Выравнивание : Соединение по промежуткам
Продолжительность промежутка : 24 мс. (0,58 видеокадр)
Время предзагрузки промежутка : 24 мс.
Заголовок : Gears Media

pb.wtf



Скачать Библиотекари через торрент http://i101.fastpic.ru/big/2017/1217/c8/7c9ddf6e27005139e6e020982094f2c8.jpg Скачать фильм Библиотекари через торрент бесплантно в хорошем качестве Описание: Если зайти в здание нью-йоркской публичной библиотеки, повернуть направо, шагнуть в магический портал и спуститься в лифте на ... 10 10 3
Торрент: Зарегистрирован [2018-02-15 06:30] · скачан: 24 раз
Статус: √ проверено
Размер: 5.41 GB
Как cкачать? Как скачать Библиотекари через торрент | qTorrent

% Раздел Тема Автор DL S | L
Зарубежные сериалы [ 21.37 GB ] Библиотекари / The Librarians / Сезон 4 / Серии 1-12 из 12 [2017 WEB-DLRip 1080p] [MVO] [LostFilm] killermax2013 Скачать
1 | 0
Зарубежные сериалы [ 4.38 GB ] Библиотекари / The Librarians / Сезон: 4 / Серии 1-9 из 12 [2017 WEB-DLRip] MVO [BaibaKo] GEKADOL Скачать
1 | 0
Зарубежные сериалы [ 6.11 GB ] Библиотекари / The Librarians / Сезон: 4 / Серии 1-12 из 12 [2017 WEB-DLRip] MVO [LostFilm] GEKADOL Скачать
1 | 0

28-11-2019 20:33  

Отключить всю рекламу на сайте

    Дорогой пользователь! Огромная просьба, поблагодарите релизера, оцените раздачу и оставьте свои комментарий, если Вы скачали Библиотекари через торрент бесплатно! Внесите свою лепту в развитие PiratBit!
    Комментировать посты могут только пользователи прошедшие не сложную регистрацию
    Показать сообщения:    

    Библиотекари через торрент
    Скачать бесплатно Библиотекари
    Библиотекари скачать торрент
    Библиотекари смотреть онлайн
    Cкачать фильм Библиотекари бесплатно
    Библиотекари скачать торрент в хорошем качестве
    Библиотекари смотреть онлайн бесплатно в хорошем качестве


    Вы не можете начинать темы
    Вы не можете отвечать на сообщения
    Вы не можете редактировать свои сообщения
    Вы не можете удалять свои сообщения
    Вы не можете голосовать в опросах
    Вы не можете прикреплять файлы к сообщениям
    Вы можете скачивать файлы