Ссылка на приватное зеркало нашего сайта всего за 1$. Внимание количество ограничено!!!

2 сезон

iTunes

1 сезон

1

iTunes

iTunes

iTunes

1 сезон

RePack

30

ИГРА 18+

pack

ВАЖНО

!!Акция!!

Alien_RageХит недели

RePack

MK11
pack

Забери бонус

RePack

jed

!!Акция!!

Alien_Rage

RePack

fifa19

RePack

Assassins Creed: Odyssey

RePack

NEED FOR SPEED™ PAYBACK

4 сезон

9 сезон

Бесстыжие 9 сезон

Все сериалы

все сериалы на PB.wtf

RePack

FAR CRY 5
  

Инспектор Купер. Невидимый враг / Сезон: 3 / Серии: 1-20 из 20 (Сергей Артимович, Александра Бутько) [2018, Детектив, WEB-DLRip] pb.wtf

Инспектор Купер. Невидимый враг через торрент pb.wtf

Размер: 12.71 GB | Добавлен: 2 года 8 мес. назад | Торрент скачан:43 раза
Скачать  

15-02-2018 09:20 Инспектор Купер. Невидимый враг Скачать торрент  

Инспектор Купер. Невидимый врагГод выпуска: 2018
Страна: Россия
Жанр: Детектив
Продолжительность: x ~ 00:45:00
Субтитры: отсутствуют

Режиссер: Сергей Артимович, Александра Бутько

В ролях:

Олег Чернов, Артём Цуканов, Алексей Аптовцев, Евгения Игумнова, Максим Литовченко, Наталья Высочанская, Евгений Ибрагимов, Алексей Штукин, Георгий Пицхелаури, Анвар Либабов, Сергей Палмер, Дмитрий Соловьёв (II), Вадим Лымарь, Оксана Базилевич, Егор Петренко, Евгения Глотова, Юрий Чулков, Алеся Тучина, Екатерина Шумакова, Анастасия Лазо, Олег Метелев, Александр Петров (V), Михаил Бракоренко, Дмитрий Лебедев, Алексей Федькин, Александр Удальцов

Описание:

Добро с кулаками - это о нем! Новые серии приключенческого детективного фильма «Купер» посвящены новым подвигам лучшего участкового страны - Алексея Куприянова. Он живет и работает в самом обычном российском городке, в самом обычном жилом районе «Арсенал». Но Купер как никто знает, что за внешне сонным невыразительным фасадом «Арсенала» разыгрываются настоящие драмы, совершаются дерзкие преступления, проворачиваются незаконные сделки. Он был очень талантливым оперативником, перед ним открывались отличные карьерные возможности. Но при исполнении погиб его друг и коллега, и Купер, плюнув на возможные звания и регалии, ушел «работать на земле», то есть стал участковым. Только так он смог продолжить поиски убийц друга. Рутинная, ежедневная его работа заключается в том, чтобы поддерживать порядок в районе, где очень многие стремятся его нарушить. Кто-то поджег автосервис, кто-то «втюхивает» подросткам наркотики. Как тени из прошлого, на «землю» Купера возвращаются из тюрьмы рецидивисты. Криминальные трупы, странные кражи, подозрительные несчастные случи на стройке…. Каждый день - новая битва.

Качество: WEB-DLRip
Формат: AVI

Видео: XviD, 1650 Кбит/с, 720х400
Аудио: AC3, 2 ch, 192 Кбит/с
скриншот   скриншот   скриншот   скриншот  

Общее
Полное имя : D:\Inspektor.Kuper.S03.WEB-DLRip.25Kuzmich\Inspektor.Kuper.s03e01.WEB-DLRip.25Kuzmich.avi
Формат : AVI
Формат/Информация : Audio Video Interleave
Размер файла : 650 Мбайт
Продолжительность : 49 м. 5 с.
Общий поток : 1852 Кбит/сек
Программа кодирования : VirtualDubMod 1.5.10.3 | www.virtualdub-fr.org || (build 2550/release)
Библиотека кодирования : VirtualDubMod build 2550/release

Видео
Идентификатор : 0
Формат : MPEG-4 Visual
Профиль формата : Advanced Simple@L5
Параметр BVOP формата : 2
Параметр QPel формата : Нет
Параметр GMC формата : Без точки перехода
Параметр матрицы формата : Default (MPEG)
Идентификатор кодека : XVID
Идентификатор кодека/Подсказка : XviD
Продолжительность : 49 м. 5 с.
Битрейт : 1650 Кбит/сек
Ширина : 720 пикселей
Высота : 400 пикселей
Соотношение сторон : 16:9
Частота кадров : 25,000 кадров/сек
Цветовое пространство : YUV
Субдискретизация насыщенности : 4:2:0
Битовая глубина : 8 бит
Тип развёртки : Прогрессивная
Метод сжатия : С потерями
Бит/(Пиксели*Кадры) : 0.229
Размер потока : 579 Мбайт (89%)
Библиотека кодирования : XviD 1.2.1 (UTC 2008-12-04)

Аудио
Идентификатор : 1
Формат : AC-3
Формат/Информация : Audio Coding 3
Расширение режима : CM (complete main)
Параметр Endianness формата : Big
Идентификатор кодека : 2000
Продолжительность : 49 м. 5 с.
Вид битрейта : Постоянный
Битрейт : 192 Кбит/сек
Каналы : 2 канала
Расположение каналов : Front: L R
Частота : 48,0 КГц
Частота кадров : 31,250 кадров/сек (1536 spf)
Метод сжатия : С потерями
Размер потока : 67,4 Мбайт (10%)
Выравнивание : Разделение по промежуткам
Продолжительность промежутка : 40 мс. (1,00 видеокадр)
Время предзагрузки промежутка : 500 мс.

pb.wtf



Скачать Инспектор Купер. Невидимый враг через торрент http://img12.lostpic.net/2018/02/01/230732829bcfbfebca87b216ce0fd456.jpg Скачать фильм Инспектор Купер. Невидимый враг через торрент бесплантно в хорошем качестве Описание: Добро с кулаками - это о нем! Новые серии приключенческого детективного фильма «Купер» посвящены новым подвигам лучшего ... 10 10 3
Торрент: Зарегистрирован [2018-02-15 09:20] · скачан: 43 раз
Статус: √ проверено
Размер: 12.71 GB
Как cкачать? Как скачать Инспектор Купер. Невидимый враг через торрент | qTorrent

% Раздел Тема Автор DL S | L
Наши сериалы [ 14.74 GB ] Инспектор Купер. Невидимый враг / Сезон 3 / Серии 1-20 из 20 [2018 HDTVRip] bober100 Скачать
1 | 0
Наши сериалы [ 12.9 GB ] Инспектор Купер. Невидимый враг / Сезон 3 / Серии 1-20 из 20 [2018 SATRip] bober100 Скачать
1 | 0
Наши сериалы [ 11.35 GB ] Инспектор Купер. Невидимый враг / Сезон: 3 / Серии: 1-20 из 20 [2018 SATRip-AVC] aleksan55 Скачать
1 | 0

28-11-2019 20:33  

Отключить всю рекламу на сайте

    Дорогой пользователь! Огромная просьба, поблагодарите релизера, оцените раздачу и оставьте свои комментарий, если Вы скачали Инспектор Купер. Невидимый враг через торрент бесплатно! Внесите свою лепту в развитие PiratBit!
    Комментировать посты могут только пользователи прошедшие не сложную регистрацию
    Показать сообщения:    

    Инспектор Купер. Невидимый враг через торрент
    Скачать бесплатно Инспектор Купер. Невидимый враг
    Инспектор Купер. Невидимый враг скачать торрент
    Инспектор Купер. Невидимый враг смотреть онлайн
    Cкачать фильм Инспектор Купер. Невидимый враг бесплатно
    Инспектор Купер. Невидимый враг скачать торрент в хорошем качестве
    Инспектор Купер. Невидимый враг смотреть онлайн бесплатно в хорошем качестве


    Вы не можете начинать темы
    Вы не можете отвечать на сообщения
    Вы не можете редактировать свои сообщения
    Вы не можете удалять свои сообщения
    Вы не можете голосовать в опросах
    Вы не можете прикреплять файлы к сообщениям
    Вы можете скачивать файлы