новый адрес пиратбит piratbit
Мега распродажа FORZA HORIZON 4 ULTIMATE+ВСЕ DLC+ОНЛАЙН всего за 499р. 349 руб. (супер цена). Внимание количество ограничено!!!

iTunes

1+1

iTunes

мы

iTunes

1

iTunes

Чернобыль

iTunes

Ральф против интернета

Лицензия

ПШазам

Лицензия

Игра престолов

Лицензия

30
pack

ВАЖНО

!!Акция!!

Alien_RageХит недели

RePack

Resident Evil 21

ИГРА 18+

pack

RePack

Metro:Exodus

!!Акция!!

Alien_Rage

RePack

fifa19

RePack

Assassins Creed: Odyssey

RePack

NEED FOR SPEED™ PAYBACK

3 сезон

9 сезон

Бесстыжие 9 сезон

Все сериалы

все сериалы на PB.wtf

RePack

FAR CRY 5
Ребята, катастрофически не хватает 1900р. для оплаты серверов за Октябрь (всвязи с блокировками трафик упал в 3 раза), 1-2р., выручайте.
  

Об этом говорит вся Махалля (Шухрат Аббасов) [1960, СССР, комедия, музыка, VHSRip от AVP Studio] pb.wtf

Об этом говорит вся Махалля через торрент pb.wtf

Размер: 1.09 GB | Добавлен: 1 год 8 мес. назад | Торрент скачан:13 раз
Скачать  

15-02-2018 09:54 Об этом говорит вся Махалля Скачать торрент  

Об этом говорит вся Махалля
Страна: СССР
Производство: Узбекфильм

Жанр: комедия, музыка
Год выпуска: 1960
Продолжительность: 01:19:39

Перевод: Не требуется
Cубтитры: нет
Оригинальная аудиодорожка: русский

Режиссер: Шухрат Аббасов

В ролях:
Халида Исхакова, Роза Ризамухамедова, Р. Мадрахимова, Хамза Умаров, Тулкун Таджиев, А. Алиев, Лютфи Сарымсакова, Марьям Якубова, Икрама Балтаева, Раззак Хамраев, Рахим Пирмухамедов...
Об актёрах подробней

Описание:
В одном из кварталов старой части Ташкента (Махалле), в глинобитных домиках напротив большого нового корпуса живут семьи строителей: каменщик с женой и дочерью Сайерой, старушка Мехрихон (Лютфи Сарымсакова), сын которой Азимджан завершает учёбу в Москве, завскладом Арслан с сыном-крановщиком Умаром (Хамза Умаров).

Источник: VHS
Качество видео: VHSRip
Формат видео: AVI

Видео: 672x496 (4:3), 25 fps, XviD ~ 1758 kbps avg, 0.211 bit/pixel
Аудио: 48 kHz, Dolby Digital AC3 2.0, 192 kbps

Раздача от:
Общее
Полное имя : Ob.yetom.govorit.vsya.Mahallya.1960.VHSRip_[New-team]_by_AVP_Studio.avi
Формат : AVI
Формат/Информация : Audio Video Interleave
Размер файла : 1,09 Гбайт
Продолжительность : 1 ч. 19 м.
Общий поток : 1959 Кбит/сек
Программа кодирования : VirtualDubMod 1.5.10.3 | www.virtualdub-fr.org || (build 2550/release)
Библиотека кодирования : VirtualDubMod build 2550/release

Видео
Идентификатор : 0
Формат : MPEG-4 Visual
Профиль формата : Advanced Simple@L5
Настройки формата : BVOP1 / Custom Matrix
Параметр BVOP формата : 1
Параметр QPel формата : Нет
Параметр GMC формата : Без точки перехода
Параметр матрицы формата : Выборочная
Идентификатор кодека : XVID
Идентификатор кодека/Подсказка : XviD
Продолжительность : 1 ч. 19 м.
Битрейт : 1758 Кбит/сек
Ширина : 672 пикселя
Высота : 496 пикселей
Соотношение сторон : 4:3
Частота кадров : 25,000 кадров/сек
Цветовое пространство : YUV
Субдискретизация насыщенности : 4:2:0
Битовая глубина : 8 бит
Тип развёртки : Прогрессивная
Метод сжатия : С потерями
Бит/(Пиксели*Кадры) : 0.211
Размер потока : 1001 Мбайт (90%)
Библиотека кодирования : XviD 73

Аудио
Идентификатор : 1
Формат : AC-3
Формат/Информация : Audio Coding 3
Идентификатор кодека : 2000
Продолжительность : 1 ч. 19 м.
Вид битрейта : Постоянный
Битрейт : 192 Кбит/сек
Каналы : 2 канала
Расположение каналов : Front: L R
Частота : 48,0 КГц
Частота кадров : 31,250 кадров/сек (1536 SPF)
Битовая глубина : 16 бит
Метод сжатия : С потерями
Размер потока : 109 Мбайт (10%)
Выравнивание : Разделение по промежуткам
Продолжительность промежутка : 40 мс. (1,00 видеокадр)
Время предзагрузки промежутка : 500 мс
pb.wtf



Скачать Об этом говорит вся Махалля через торрент http://i101.fastpic.ru/big/2018/0215/50/317dc171e11426d8ec7601a5bbf54e50.png Скачать фильм Об этом говорит вся Махалля через торрент бесплантно в хорошем качестве Описание:В одном из кварталов старой части Ташкента (Махалле), в глинобитных домиках напротив большого нового корпуса живут семьи ... 5 10 1
Info! Золотая раздача, скачанное не засчитывается.
Торрент: Зарегистрирован [2018-02-15 09:54] · скачан: 13 раз
Статус: √ проверено
Размер: 1.09 GB
Как cкачать? Как скачать Об этом говорит вся Махалля через торрент | qTorrent

% Раздел Тема Автор DL S | L
Кино СССР [ 1.09 GB ] Об этом говорит вся Махалля [1960 СССР музыка VHSRip-AVC от AVP Studio] AVP Studio Скачать
1 | 0


>> Регистрируемся здесь <<






Отзывы и комментарии о схеме читаем и пишем здесь: ---> Отзывы и комментарии о схеме

Новые благодарочки в телеграм довольных пользователей:
скриншот   скриншот   скриншот   скриншот   скриншот
    Дорогой пользователь! Огромная просьба, поблагодарите релизера, оцените раздачу и оставьте свои комментарий, если Вы скачали Об этом говорит вся Махалля через торрент бесплатно! Внесите свою лепту в развитие PiratBit!
    Комментировать посты могут только пользователи прошедшие не сложную регистрацию
    Показать сообщения:    

    Об этом говорит вся Махалля через торрент
    Скачать бесплатно Об этом говорит вся Махалля
    Об этом говорит вся Махалля скачать торрент
    Об этом говорит вся Махалля смотреть онлайн
    Cкачать фильм Об этом говорит вся Махалля бесплатно
    Об этом говорит вся Махалля скачать торрент в хорошем качестве
    Об этом говорит вся Махалля смотреть онлайн бесплатно в хорошем качестве


    Вы не можете начинать темы
    Вы не можете отвечать на сообщения
    Вы не можете редактировать свои сообщения
    Вы не можете удалять свои сообщения
    Вы не можете голосовать в опросах
    Вы не можете прикреплять файлы к сообщениям
    Вы можете скачивать файлы