2 сезон

iTunes

MVO

1

2 сезон

iTunes

iTunes

1 сезон

RePack

30

Ultimate

ВАЖНО

ИГРА 18+

pack

RePack

MK11
pack

Легкие деньги

RePack

jed

RePack

fifa19

RePack

RDR2

RePack

NEED FOR SPEED™ PAYBACK

4 сезон

9 сезон

Бесстыжие 9 сезон

Все сериалы

все сериалы на PB.wtf

RePack

FAR CRY 5

Anonymous, добрый день, мы не успеваем собрать деньги на оплату серверов за декабрь и январь, помогите нам пожалуйста в это трудное время. В качестве благодарности мы отключим Вам всю рекламу на сайте (укажите свой ник в строку Ваше имя)!

×
  
Magnet ссылка

Снеговик / The Snowman (Томас Альфредсон / Tomas Alfredson) [2017, триллер, драма, криминал, BDRip-AVC] Dub [Лицензия] pb.wtf

Снеговик через торрент pb.wtf

Раздают: 1 [ 0 KB/s ]
Размер: 746 MB | Добавлен: 2 года 11 мес. назад | Торрент скачан:137 раз
Скачать  

15-02-2018 12:46 Снеговик Скачать торрент  

Снеговик
The Snowman

«Скоро выпадет первый снег и начнется опасная игра»


Страна: Великобритания, США, Швеция
Жанр: триллер, драма, криминал, детектив

Год выпуска: 2017
Продолжительность: 01:59:15

Перевод: Профессиональный (полное дублирование) [Blu-ray EUR]
Субтитры: русские (форсированные, полные)
Оригинальная аудиодорожка: нет

Режиссер: Томас Альфредсон / Tomas Alfredson

В ролях: Майкл Фассбендер, Ребекка Фергюсон, Шарлотта Генсбур, Йонас Карлссон, Майкл Йэтс, Ронан Вайберт, Дж.К. Симмонс, Вэл Килмер, Давид Денсик, Тоби Джонс, Женевьев О’Рейли, Джеймс Д’Арси

Описание:
В течение многих лет в день, когда выпадает первый снег, бесследно исчезают замужние женщины. Сложить все части загадочного пазла под силу только знаменитому детективу. Он потерял покой и сон, ведь время следующего снегопада неумолимо приближается.



Релиз:

Автор рипа: stalkerok | Моя группа

Сэмпл

Качество видео: BDRip-AVC [The Snowman (2017) Blu-ray Disc [EUR] -nLiBRA]
Формат видео: MKV
Видео кодек: AVC
Аудио кодек: AAC
Видео: AVC, 809 Кбит/сек, 788x426 (1.85:1), 23,976 кадр/сек
Аудио: AAC, 64,0 Кбит/сек, 48,0 КГц / 24,0 КГц, 2 канала - русский
Навигация по главам: есть

---[Information] [13.02.2018 19:02:26] x264 [info]: frame I:1248 Avg QP:14.94 size: 39554
---[Information] [13.02.2018 19:02:26] x264 [info]: frame P:32945 Avg QP:18.77 size: 10123
---[Information] [13.02.2018 19:02:26] x264 [info]: frame B:137359 Avg QP:20.34 size: 2479

Общее
Уникальный идентификатор : 222444861279570034931551485262914605969 (0xA759526A179C024E9D8AD6189ECF5391)
Полное имя : M:\$new\The Snowman (2017)\The.Snowman.2017.BDRip-AVC.RUS..stalkerok.new-team.mkv
Формат : Matroska
Версия формата : Version 4 / Version 2
Размер файла : 746 Мбайт
Продолжительность : 1 ч. 59 м.
Общий поток : 875 Кбит/сек
Название фильма : The Snowman (2017) (Rip by stalkerok)
Дата кодирования : UTC 2018-02-15 12:38:18
Программа кодирования : mkvmerge v8.6.1 ('Flying') 64bit
Библиотека кодирования : libebml v1.3.3 + libmatroska v1.4.4

Видео
Идентификатор : 3
Формат : AVC
Формат/Информация : Advanced Video Codec
Профиль формата : High@L4.1
Параметр CABAC формата : Да
Параметр ReFrames формата : 12 кадров
Идентификатор кодека : V_MPEG4/ISO/AVC
Продолжительность : 1 ч. 59 м.
Битрейт : 809 Кбит/сек
Ширина : 788 пикселей
Высота : 426 пикселей
Соотношение сторон : 1,85:1
Режим частоты кадров : Постоянный
Частота кадров : 23,976 (24000/1001) кадра/сек
Цветовое пространство : YUV
Субдискретизация насыщенности : 4:2:0
Битовая глубина : 8 бит
Тип развёртки : Прогрессивная
Бит/(Пиксели*Кадры) : 0.101
Размер потока : 690 Мбайт (92%)
Заголовок : The Snowman (2017) (Rip by stalkerok)
Библиотека кодирования : x264 core 152 r2851kMod ba24899
Настройки программы : cabac=1 / ref=12 / deblock=1:-3:-2 / analyse=0x3:0x133 / me=umh / subme=11 / psy=1 / fade_compensate=0.00 / psy_rd=1.00:0.00 / mixed_ref=1 / me_range=32 / chroma_me=1 / trellis=2 / 8x8dct=1 / cqm=0 / deadzone=21,11 / fast_pskip=0 / chroma_qp_offset=-2 / threads=12 / lookahead_threads=3 / sliced_threads=0 / nr=0 / decimate=0 / interlaced=0 / bluray_compat=0 / constrained_intra=0 / bframes=16 / b_pyramid=2 / b_adapt=2 / b_bias=0 / direct=3 / weightb=1 / open_gop=0 / weightp=2 / keyint=240 / keyint_min=23 / scenecut=40 / intra_refresh=0 / rc_lookahead=60 / rc=2pass / mbtree=0 / bitrate=809 / ratetol=1.0 / qcomp=0.65 / qpmin=0 / qpmax=69 / qpstep=4 / cplxblur=20.0 / qblur=0.5 / vbv_maxrate=50000 / vbv_bufsize=62500 / nal_hrd=none / filler=0 / ip_ratio=1.40 / pb_ratio=1.30 / aq=3:0.95 / zones=164571,171551,q=34
Default : Да
Forced : Нет

Аудио
Идентификатор : 4
Формат : AAC
Формат/Информация : Advanced Audio Codec
Профиль формата : HE-AAC / LC
Идентификатор кодека : A_AAC
Продолжительность : 1 ч. 59 м.
Битрейт : 64,0 Кбит/сек
Каналы : 2 канала
Расположение каналов : Front: L R
Частота : 48,0 КГц / 24,0 КГц
Частота кадров : 23,438 кадра/сек (1024 spf)
Метод сжатия : С потерями
Задержка видео : 31 мс.
Размер потока : 54,6 Мбайт (7%)
Язык : Russian
Default : Да
Forced : Нет

Текст #1
Идентификатор : 1
Формат : UTF-8
Идентификатор кодека : S_TEXT/UTF8
Идентификатор кодека/Информация : UTF-8 Plain Text
Продолжительность : 1 ч. 37 м.
Битрейт : 1 бит/сек
Count of elements : 34
Размер потока : 1,42 Кбайт (0%)
Заголовок : Forced
Язык : Russian
Default : Да
Forced : Нет

Текст #2
Идентификатор : 2
Формат : UTF-8
Идентификатор кодека : S_TEXT/UTF8
Идентификатор кодека/Информация : UTF-8 Plain Text
Продолжительность : 1 ч. 53 м.
Битрейт : 59 бит/сек
Count of elements : 1027
Размер потока : 49,5 Кбайт (0%)
Язык : Russian
Default : Нет
Forced : Нет

Меню
00:00:00.000 : en:Chapter 1
00:06:23.007 : en:Chapter 2
00:13:43.072 : en:Chapter 3
00:20:05.662 : en:Chapter 4
00:24:21.376 : en:Chapter 5
00:29:25.263 : en:Chapter 6
00:33:09.320 : en:Chapter 7
00:42:17.284 : en:Chapter 8
00:50:44.124 : en:Chapter 9
00:55:33.747 : en:Chapter 10
01:02:19.902 : en:Chapter 11
01:08:06.457 : en:Chapter 12
01:12:24.214 : en:Chapter 13
01:17:31.396 : en:Chapter 14
01:23:55.488 : en:Chapter 15
01:29:06.883 : en:Chapter 16
01:35:45.322 : en:Chapter 17
01:42:39.027 : en:Chapter 18
01:50:33.752 : en:Chapter 19
01:54:23.982 : en:Chapter 20
скриншот   скриншот   скриншот   скриншот   скриншот   скриншот  
pb.wtf



Скачать Снеговик через торрент http://i6.imageban.ru/out/2017/09/18/2ff75c0c358795c5946784cc1680714d.png Скачать фильм Снеговик через торрент бесплантно в хорошем качестве Описание:В течение многих лет в день, когда выпадает первый снег, бесследно исчезают замужние женщины. Сложить все части загадочного пазла ... 10 10 2
Info! Золотая раздача, скачанное не засчитывается.
Торрент: Зарегистрирован [2018-02-15 12:46] · скачан: 137 раз
Статус: √ проверено
Размер: 746 MB
Как cкачать? Как скачать Снеговик через торрент | UTorrent

% Раздел Тема Автор DL S | L
Фильмы 2017 [DVDrip, WEB-DLRip, HDrip] (DUB, MVO) [ 1.46 GB ] Снеговик / The Snowman [2017 BDRip-AVC] sokol_ok Скачать
2 | 0
Ultra HD (UHD: 2K, 4K, 8K) — видео сверхвысокой чёткости [ 33.44 GB ] Снеговик / The Snowman [2017 UHD WEBRip 2160p] sheker187 Скачать
1 | 0
Фильмы (HD 720p, 1080p) (48-60 fps) [ 5.63 GB ] Снеговик / The Snowman [2017 BDRip 720p 60 fps от еnvy / NNNB] еnvy Скачать
4 | 0
Фильмы [HD 720p, 1080p] (Хороший звук DUB, MVO) [ 9.12 GB ] Снеговик / The Snowman [2017 BDRip 1080p] sokol_ok Скачать
1 | 0
Фильмы [HD 720p, 1080p] (Хороший звук DUB, MVO) [ 3.88 GB ] Снеговик / The Snowman [2017 BDRip 720p] sokol_ok Скачать
1 | 0
Фильмы 2017 [DVDrip, WEB-DLRip, HDrip] (DUB, MVO) [ 2.18 GB ] Снеговик / The Snowman [2017 BDRip-AVC] sokol_ok Скачать
2 | 0
Фильмы 2017 [DVDrip, WEB-DLRip, HDrip] (DUB, MVO) [ 2.5 GB ] Снеговик / The Snowman [2017 BDRip-AVC] DUB [] bober100 Скачать
1 | 0

28-11-2019 20:33  

Отключить всю рекламу на сайте

    Дорогой пользователь! Огромная просьба, поблагодарите релизера, оцените раздачу и оставьте свои комментарий, если Вы скачали Снеговик через торрент бесплатно! Внесите свою лепту в развитие PiratBit!
    Комментировать посты могут только пользователи прошедшие не сложную регистрацию
    Показать сообщения:    

    Снеговик через торрент
    Скачать бесплатно Снеговик
    Снеговик скачать торрент
    Снеговик смотреть онлайн
    Cкачать фильм Снеговик бесплатно
    Снеговик скачать торрент в хорошем качестве
    Снеговик смотреть онлайн бесплатно в хорошем качестве


    Вы не можете начинать темы
    Вы не можете отвечать на сообщения
    Вы не можете редактировать свои сообщения
    Вы не можете удалять свои сообщения
    Вы не можете голосовать в опросах
    Вы не можете прикреплять файлы к сообщениям
    Вы можете скачивать файлы