MEGA SALE -50% FORZA HORIZON 4 ULTIMATE+ВСЕ DLC+ОНЛАЙН всего за 599р. 299 руб. (супер цена). Внимание количество ограничено!!!

iTunes

1+1

iTunes

мы

iTunes

1

iTunes

Чернобыль

1 сезон

Ральф против интернета

Лицензия

ПШазам

Лицензия

Игра престолов

Лицензия

30
pack

ВАЖНО

!!Акция!!

Alien_RageХит недели

RePack

Resident Evil 21

ИГРА 18+

pack

RePack

Metro:Exodus

!!Акция!!

Alien_Rage

RePack

fifa19

RePack

Assassins Creed: Odyssey

RePack

NEED FOR SPEED™ PAYBACK

3 сезон

9 сезон

Бесстыжие 9 сезон

Все сериалы

все сериалы на PB.wtf

RePack

FAR CRY 5
Ребята, катастрофически не хватает 7730р. для оплаты серверов за ИЮЛЬ (всвязи с блокировками трафик упал в 3 раза), 1-2р., выручайте.
  

Поворот не туда 3 / Wrong Turn 3: Left for Dead (Деклан О’Брайэн) [2009 г., ужасы, триллер, BDRip-AVC, Профессиональный (многоголосый)] pb.wtf

Поворот не туда 3 через торрент pb.wtf

Размер: 2.5 GB | Добавлен: 1 год 5 мес. назад | Торрент скачан:11 раз
Скачать  

15-02-2018 14:30 Поворот не туда 3 Скачать торрент  

Поворот не туда 3 /
Wrong Turn 3: Left for Dead
Год выпуска: 2009
Страна: США, Германия
Жанр: ужасы, триллер
Продолжительность: 01:32:02
Перевод: Профессиональный (многоголосый закадровый) Лицензия
Субтитры: отсутствуют

Режиссер: Деклан О’Брайэн

Премьера в мире: 8 октября 2009

rating

В ролях: Том Фредерик, Джанет Монтгомери, Джил Колирин, Кристиан Райан Контрерас, Джэйк Каррен, Том МакКэй, Чуки Венис, Тамер Хассан, Джек Гордон, Луиз Клифф

Описание: Группа людей оказывается загнанной в ловушку, в лесах Западной Вирджинии, где они вынуждены бороться за свои жизни против группы порочных, и ужасно уродливых каннибалов.

Качество: BDRip-AVC
Формат: MKV
Видео кодек: H.264
Аудио кодек: AC3
Видео: AVC/H.264, 1152х648 (16:9), ~3500 kbps, 0.196 bit/pixel
Аудио#1: Русский: AC3, 6 ch, 384 kbps - Профессиональный (многоголосый закадровый) Лицензия
Релиз от: winchester00100010 СКАЧАЛ САМ?, ДАЙ СКАЧАТЬ ДРУГИМ!!!
УБЕДИТЕЛЬНАЯ ПРОСЬБА, НЕ СВАЛИВАЙТЕ С РАЗДАЧИ!!!

Видео
Идентификатор : 1
Формат : AVC
Формат/Информация : Advanced Video Codec
Профиль формата : High@L4.1
Настройки формата : CABAC / 11 Ref Frames
Параметр CABAC формата : Да
Параметр RefFrames формата : 11 кадров
Идентификатор кодека : V_MPEG4/ISO/AVC
Продолжительность : 1 ч. 32 м.
Битрейт : 3500 Кбит/сек
Ширина : 1152 пикселя
Высота : 648 пикселей
Соотношение сторон : 16:9
Режим частоты кадров : Постоянный
Частота кадров : 23,976 (24000/1001) кадра/сек
Цветовое пространство : YUV
Субдискретизация насыщенности : 4:2:0
Битовая глубина : 8 бит
Тип развёртки : Прогрессивная
Бит/(Пиксели*Кадры) : 0.196
Размер потока : 2,20 Гбайт (88%)
Библиотека кодирования : x264 core 146 r2538 121396c
Настройки программы : cabac=1 / ref=11 / deblock=1:-3:-3 / analyse=0x3:0x113 / me=umh / subme=9 / psy=1 / psy_rd=1.00:0.00 / mixed_ref=1 / me_range=24 / chroma_me=1 / trellis=2 / 8x8dct=1 / cqm=0 / deadzone=21,11 / fast_pskip=0 / chroma_qp_offset=-2 / threads=12 / lookahead_threads=2 / sliced_threads=0 / nr=0 / decimate=0 / interlaced=0 / bluray_compat=0 / constrained_intra=0 / bframes=10 / b_pyramid=2 / b_adapt=2 / b_bias=0 / direct=3 / weightb=1 / open_gop=0 / weightp=2 / keyint=240 / keyint_min=23 / scenecut=40 / intra_refresh=0 / rc=2pass / mbtree=0 / bitrate=3500 / ratetol=1.0 / qcomp=0.60 / qpmin=0 / qpmax=69 / qpstep=4 / cplxblur=20.0 / qblur=0.5 / ip_ratio=1.40 / pb_ratio=1.30 / aq=1:0.80
Default : Да
Forced : Нет

Аудио
Идентификатор : 2
Формат : AC-3
Формат/Информация : Audio Coding 3
Идентификатор кодека : A_AC3
Продолжительность : 1 ч. 32 м.
Вид битрейта : Постоянный
Битрейт : 384 Кбит/сек
Каналы : 6 каналов
Расположение каналов : Front: L C R, Side: L R, LFE
Частота : 48,0 КГц
Частота кадров : 31,250 кадров/сек (1536 SPF)
Битовая глубина : 16 бит
Метод сжатия : С потерями
Размер потока : 253 Мбайт (10%)
ServiceKind/String : Complete Main
Default : Да
Forced : Нет

pb.wtf



Скачать Поворот не туда 3 через торрент https://c.radikal.ru/c07/1802/e6/014d720edf01.jpg Скачать фильм Поворот не туда 3 через торрент бесплантно в хорошем качестве Описание: Группа людей оказывается загнанной в ловушку, в лесах Западной Вирджинии, где они вынуждены бороться за свои жизни против группы ... 10 10 1
Торрент: Зарегистрирован [2018-02-28 15:31] · скачан: 11 раз
Статус: √ проверено
Размер: 2.5 GB
Как cкачать? Как скачать Поворот не туда 3 через торрент | qTorrent

% Раздел Тема Автор DL S | L
Фильмы (DVD фильмы) [ 4.24 GB ] Поворот не туда 3 / Wrong Turn 3: Left for Dead [2009 DVD5] DEVI Скачать
1 | 0
Фильмы 2009 [ 1.37 GB ] Поворот не туда 3 / Wrong Turn 3: Left for Dead [2009 DVDRip] DEVI Скачать
1 | 0


Последний раз редактировалось: winchester00100010 (2018-02-28 21:24), всего редактировалось 1 раз


>> Регистрируемся здесь <<






Отзывы и комментарии о схеме читаем и пишем здесь: ---> Отзывы и комментарии о схеме

Новые благодарочки в телеграм довольных пользователей:
скриншот   скриншот   скриншот   скриншот   скриншот

28-02-2018 21:22 Поворот не туда 3 Скачать торрент  

Всем приятного просмотра)pb.wtf



    Дорогой пользователь! Огромная просьба, поблагодарите релизера, оцените раздачу и оставьте свои комментарий, если Вы скачали Поворот не туда 3 через торрент бесплатно! Внесите свою лепту в развитие PiratBit!
    Комментировать посты могут только пользователи прошедшие не сложную регистрацию
    Показать сообщения:    

    Поворот не туда 3 через торрент
    Скачать бесплатно Поворот не туда 3
    Поворот не туда 3 скачать торрент
    Поворот не туда 3 смотреть онлайн
    Cкачать фильм Поворот не туда 3 бесплатно
    Поворот не туда 3 скачать торрент в хорошем качестве
    Поворот не туда 3 смотреть онлайн бесплатно в хорошем качестве


    Вы не можете начинать темы
    Вы не можете отвечать на сообщения
    Вы не можете редактировать свои сообщения
    Вы не можете удалять свои сообщения
    Вы не можете голосовать в опросах
    Вы не можете прикреплять файлы к сообщениям
    Вы можете скачивать файлы