Доктор Стрэндж

Лицензия

Добыча

MVO

Дом дракона

1 сезон

Тор

Лицензия

Мэверик

Лицензия

Там, где раки поют

MVO

Властелин колец

1 сезон

Ultimate

pack

Рекомендуем

30

Repack

ВАЖНО

ВАЖНО

Ghostwire

RePack

jed

RePack

nioh2

RePack

RDR2

RePack

NEED FOR SPEED™ PAYBACK

RePack

скачать торрент

Кинопоиск HD

Острые козырьки 6 сезон

6 сезон

FAR CRY 6

RePack

скачать торрент

Лицензия

скачать торрент

MVO

1

1 сезон

скачать торрент

1 сезон

скачать торрент

Лицензия

  

Американский футбол / Gridiron UK (Гари Делани) [2016, драма, комедия, спорт, HDTVRip 720p] MVO ["Синема УС]

Американский футбол через торрент pb.wtf

Размер: 3.24 GB | Добавлен: 4 года 7 мес. назад | Торрент скачан:15 раз
Смотреть онлайн Американский футбол | Скачать   

15-02-2018 14:37 Американский футбол Скачать торрент  

Американский футбол / Gridiron UKГод выпуска: 2016
Страна: США
Жанр: драма, комедия, спорт
Продолжительность: 01:32:33
Перевод: Любительский (многоголосый) ["Синема УС]
Субтитры: отсутствуют

Режиссер: Гари Делани

rating

В ролях:

Майкл Диксон, Эндрю Миллс, Дорси Левенс, Ребекка Питкин, Стивен Маркус, Мем Ферда, Энтони Куинлэн, Пол Николас, Расселл Флойд, Хелен Ледерер

Описание:

Фильм основан на реальных событиях, происходивших в 1985 году в Британии. Дерек мечтатель и неудачник. Несмотря на то, как сильно он старается, у него ничего не получается. Пытаясь доказать миру,что он способен на нечто большее, он набирает команду по американскому футболу в стране, в которой преобладают такие игры как: Регби, Соккер,Крикет. Он превращает желание стать успешным в одержимость и не замечает, как нчинает терять все,что у него уже есть.

Качество: HDTVRip 720p
Формат: MKV
Видео кодек: H.264
Аудио кодек: AC3

Видео: 4627 kb/s, 1276x542
Аудио#1: AC3, 2 ch, 384 Кбит/с

скриншот  скриншот  скриншот  

Общее
Уникальный идентификатор : 177672407315979047566265363308130416612 (0x85AA760116DA959186AF4A79B70137E4)
Полное имя : D:\The.gridiron.2016.P.HDTV.72Op_KOSHARA.mkv
Формат : Matroska
Версия формата : Version 2
Размер файла : 3,24 Гбайт
Продолжительность : 1 ч. 32 м.
Режим общего битрейта : Переменный
Общий поток : 5013 Кбит/сек
Дата кодирования : UTC 2018-02-15 09:48:38
Программа кодирования : mkvmerge v8.3.0 ('Over the Horizon') 64bit
Библиотека кодирования : libebml v1.3.1 + libmatroska v1.4.2

Видео
Идентификатор : 1
Формат : AVC
Формат/Информация : Advanced Video Codec
Профиль формата : [email protected]
Параметр CABAC формата : Да
Параметр ReFrames формата : 4 кадра
Идентификатор кодека : V_MPEG4/ISO/AVC
Продолжительность : 1 ч. 32 м.
Вид битрейта : Переменный
Битрейт : 4627 Кбит/сек
Номинальный битрейт : 5000 Кбит/сек
Максимальный битрейт : 5000 Кбит/сек
Ширина : 1276 пикселей
Высота : 542 пикселя
Соотношение сторон : 2,35:1
Режим частоты кадров : Постоянный
Частота кадров : 23,976 (24000/1001) кадра/сек
Стандарт вещания : Component
Цветовое пространство : YUV
Субдискретизация насыщенности : 4:2:0
Битовая глубина : 8 бит
Тип развёртки : Прогрессивная
Бит/(Пиксели*Кадры) : 0.273
Размер потока : 2,93 Гбайт (90%)
Библиотека кодирования : x264 core 148
Настройки программы : cabac=1 / ref=4 / deblock=1:0:0 / analyse=0x3:0x3 / me=dia / subme=1 / psy=1 / psy_rd=1.00:0.00 / mixed_ref=0 / me_range=16 / chroma_me=1 / trellis=0 / 8x8dct=1 / cqm=1 / deadzone=21,11 / fast_pskip=1 / chroma_qp_offset=0 / threads=17 / lookahead_threads=2 / sliced_threads=0 / slices=1 / nr=0 / decimate=1 / interlaced=0 / minigop=0 / stitchable=1 / constrained_intra=0 / bframes=3 / b_pyramid=0 / b_adapt=0 / b_bias=0 / direct=1 / weightb=1 / open_gop=1 / weightp=0 / keyint=240 / keyint_min=23 / scenecut=40 / intra_refresh=0 / rc_lookahead=0 / rc=cbr / mbtree=0 / bitrate=5000 / ratetol=1.0 / qcomp=0.60 / qpmin=1 / qpmax=69 / qpstep=4 / vbv_maxrate=5000 / vbv_bufsize=5000 / nal_hrd=vbr / filler=0 / ip_ratio=1.40 / pb_ratio=1.30 / aq=1:1.00
Default : Да
Forced : Нет
Цветовой диапазон : Limited
Основные цвета : BT.709
Характеристики трансфера : BT.709
Коэффициенты матрицы : BT.709

Аудио
Идентификатор : 2
Формат : AC-3
Формат/Информация : Audio Coding 3
Расширение режима : CM (complete main)
Параметр Endianness формата : Big
Идентификатор кодека : A_AC3
Продолжительность : 1 ч. 32 м.
Вид битрейта : Постоянный
Битрейт : 384 Кбит/сек
Каналы : 2 канала
Расположение каналов : Front: L R
Частота : 48,0 КГц
Частота кадров : 31,250 кадров/сек (1536 spf)
Метод сжатия : С потерями
Размер потока : 254 Мбайт (8%)
Default : Да
Forced : Нет



Скачать Американский футбол через торрент http://img12.lostpic.net/2018/02/15/a48785450a99c3de0880bedf46a57a55.jpg Скачать, смотреть онлайн Американский футбол бесплантно в хорошем качестве Описание: Фильм основан на реальных событиях, происходивших в 1985 году в Британии. Дерек мечтатель и неудачник. Несмотря на то, как сильно ... 10 10 3
Торрент: Зарегистрирован [2018-02-15 14:37] · скачан: 15 раз
Статус: T временная
Размер: 3.24 GB
Как cкачать? Как скачать Американский футбол через торрент | UTorrent

% Раздел Тема Автор DL S | L
T Фильмы (мультфильмы) cо спонсором показа (Новинки AVI/MKV) [ 1.37 GB ] Американский футбол / Gridiron UK | MVO | HDTVRip bober100 Скачать
1 | 0

28-11-2019 20:33  

Отключить вcю реклaмy на сайте

    Дорогой пользователь! Огромная просьба, поблагодарите релизера, оцените раздачу и оставьте свои комментарий, если Вы скачали Американский футбол через торрент бесплатно!!
    Комментировать посты могут только пользователи прошедшие не сложную регистрацию
    Показать сообщения:    


    Американский футбол через торрент
    Скачать бесплатно Американский футбол
    Американский футбол скачать торрент
    Американский футбол смотреть онлайн
    Cкачать фильм Американский футбол бесплатно
    Американский футбол скачать торрент в хорошем качестве
    Американский футбол смотреть онлайн бесплатно в хорошем качестве
    Вы не можете начинать темы
    Вы не можете отвечать на сообщения
    Вы не можете редактировать свои сообщения
    Вы не можете удалять свои сообщения
    Вы не можете голосовать в опросах
    Вы не можете прикреплять файлы к сообщениям
    Вы можете скачивать файлы