Ссылка на приватное зеркало всего за 1$. Внимание количество ограничено!!!

OK

1+1

iTunes

мы

OK

1

WEB-DLRip

Джокер

Пифагор

Ведьмак / The Witcher сериал

Лицензия

ПШазам

ОК

Оно 2

iTunes

30
pack

Вам бонус

ВАЖНО

!!Акция!!

Alien_RageХит недели

RePack

Resident Evil 21

ИГРА 18+

pack

RePack

jed

!!Акция!!

Alien_Rage

RePack

fifa19

RePack

Assassins Creed: Odyssey

RePack

NEED FOR SPEED™ PAYBACK

4 сезон

9 сезон

Бесстыжие 9 сезон

Все сериалы

все сериалы на PB.wtf

RePack

FAR CRY 5
  

Призраки / Hjemsøkt (Карл Кристиан Раабе) [2017, триллер, драма, криминал, BDRip 720p] MVO [КОЛОБОК] pb.wtf

Призраки через торрент pb.wtf

Размер: 3.76 GB | Добавлен: 1 год 11 мес. назад | Торрент скачан:57 раз
Скачать  

15-02-2018 14:55 Призраки Скачать торрент  

Призраки / HjemsøktГод выпуска: 2017
Страна: Норвегия
Жанр: триллер, драма, криминал
Продолжительность: 01:22:43
Перевод: Любительский (многоголосый) [КОЛОБОК]
Субтитры: отсутствуют

Режиссер: Карл Кристиан Раабе

rating

В ролях:

Синневе Макоди Лунд, Эбба Стинстрап, Кен Ведсегор, Эдуардо Гарсия-Драгесет, Сесиль Ёстад, Пол Эспен Килстад, Йорунн Кьеллсби, Ола Отнес, Ян Альфред Сандвен, Роберт Скьэрстад

Описание:

После смерти отца Кэтрин наследует старинное родовое имение в Норвегии. Когда местные жители рассказывают женщине о странных исчезновениях и возможном убийстве в этих краях, Кэтрин понимает, что ей придётся столкнуться с тёмным прошлым своей семьи.

Качество: BDRip 720p
Формат: MKV
Видео кодек: H.264
Аудио кодек: AC3

Видео: 6062 kb/s, 1280x536
Аудио#1: AC3, 2 ch, 448 Кбит/с

скриншот  скриншот  скриншот  

Общее
Уникальный идентификатор : 191908237384837557934481962029699246731 (0x90602E9DCDE9C6E9A1B92774556B2A8B)
Полное имя : D:\Hjemsokt.2017.P.BDRip.72Op.mkv
Формат : Matroska
Версия формата : Version 2
Размер файла : 3,76 Гбайт
Продолжительность : 1 ч. 22 м.
Режим общего битрейта : Переменный
Общий поток : 6512 Кбит/сек
Дата кодирования : UTC 2018-02-15 07:23:38
Программа кодирования : mkvmerge v8.3.0 ('Over the Horizon') 64bit
Библиотека кодирования : libebml v1.3.1 + libmatroska v1.4.2

Видео
Идентификатор : 1
Формат : AVC
Формат/Информация : Advanced Video Codec
Профиль формата : High@L4.1
Параметр CABAC формата : Да
Параметр ReFrames формата : 4 кадра
Идентификатор кодека : V_MPEG4/ISO/AVC
Продолжительность : 1 ч. 22 м.
Вид битрейта : Переменный
Битрейт : 6062 Кбит/сек
Максимальный битрейт : 6700 Кбит/сек
Ширина : 1280 пикселей
Высота : 536 пикселей
Соотношение сторон : 2,40:1
Режим частоты кадров : Постоянный
Частота кадров : 23,976 (24000/1001) кадра/сек
Стандарт вещания : Component
Цветовое пространство : YUV
Субдискретизация насыщенности : 4:2:0
Битовая глубина : 8 бит
Тип развёртки : Прогрессивная
Бит/(Пиксели*Кадры) : 0.361
Размер потока : 3,43 Гбайт (91%)
Default : Да
Forced : Нет
Цветовой диапазон : Limited
Основные цвета : BT.709
Характеристики трансфера : BT.709
Коэффициенты матрицы : BT.709

Аудио
Идентификатор : 2
Формат : AC-3
Формат/Информация : Audio Coding 3
Расширение режима : CM (complete main)
Параметр Endianness формата : Big
Идентификатор кодека : A_AC3
Продолжительность : 1 ч. 22 м.
Вид битрейта : Постоянный
Битрейт : 448 Кбит/сек
Каналы : 2 канала
Расположение каналов : Front: L R
Частота : 48,0 КГц
Частота кадров : 31,250 кадров/сек (1536 spf)
Метод сжатия : С потерями
Размер потока : 265 Мбайт (7%)
Default : Да
Forced : Нет

pb.wtf



Скачать Призраки через торрент http://img12.lostpic.net/2018/02/15/84fa2fe901c728d7012ab245d4e630c5.jpg Скачать фильм Призраки через торрент бесплантно в хорошем качестве Описание: После смерти отца Кэтрин наследует старинное родовое имение в Норвегии. Когда местные жители рассказывают женщине о странных ... 10 10 6
Торрент: Зарегистрирован [2018-02-15 14:55] · скачан: 57 раз
Статус: # сомнительно
Размер: 3.76 GB
Как cкачать? Как скачать Призраки через торрент | qTorrent

% Раздел Тема Автор DL S | L
T Фильмы (мультфильмы) cо спонсором показа (Новинки AVI/MKV) [ 1.35 GB ] Призраки / Hjemsøkt [2017 HDRip] MVO [КОЛОБОК] bober100 Скачать
1 | 0

28-11-2019 20:33  

Отключить всю рекламу на сайте

15-02-2018 15:32 Призраки Скачать торрент  

Про семпл . Выбираите кусок с голосом а не пустой .pb.wtf



    Дорогой пользователь! Огромная просьба, поблагодарите релизера, оцените раздачу и оставьте свои комментарий, если Вы скачали Призраки через торрент бесплатно! Внесите свою лепту в развитие PiratBit!
    Комментировать посты могут только пользователи прошедшие не сложную регистрацию
    Показать сообщения:    

    Призраки через торрент
    Скачать бесплатно Призраки
    Призраки скачать торрент
    Призраки смотреть онлайн
    Cкачать фильм Призраки бесплатно
    Призраки скачать торрент в хорошем качестве
    Призраки смотреть онлайн бесплатно в хорошем качестве


    Вы не можете начинать темы
    Вы не можете отвечать на сообщения
    Вы не можете редактировать свои сообщения
    Вы не можете удалять свои сообщения
    Вы не можете голосовать в опросах
    Вы не можете прикреплять файлы к сообщениям
    Вы можете скачивать файлы