Ссылка на приватное зеркало нашего сайта всего за 1$. Внимание количество ограничено!!!

2 сезон

iTunes

1 сезон

1

2 сезон

2 сезон

iTunes

1 сезон

RePack

30

Новинка

ВАЖНО

ИГРА 18+

pack

RePack

MK11
pack

Забери бонус

RePack

jed

!!Акция!!

Alien_Rage

RePack

fifa19

RePack

Assassins Creed: Odyssey

RePack

NEED FOR SPEED™ PAYBACK

4 сезон

9 сезон

Бесстыжие 9 сезон

Все сериалы

все сериалы на PB.wtf

RePack

FAR CRY 5
  

Holy Grail - Times Of Pride And Peril - 2016/ FLAC/ image +.cue/ lossless/ Heavy, Power Metal pb.wtf

Holy Grail - Times Of Pride And Peril - 2016 через торрент pb.wtf

Размер: 357 MB | Добавлен: 2 года 9 мес. назад | Торрент скачан:8 раз
Скачать  

15-02-2018 14:57 Holy Grail - Times Of Pride And Peril - 2016 Скачать торрент  


Holy Grail - Times Of Pride And Peril


Год издания: 2016
Страна: USA
Жанр: Heavy, Power Metal
Продолжительность: 00:46:56
Лейбл издания: Prosthetic Records
Страна-выпуска диска: Russia
Номер по каталогу: PROS102292
Формат: FLAC
Битрейт аудио: Lossless
Тип рипа: image +.cue
Наличие сканов в содержимом раздачи: да


01. Crystal King (3:46)
02. Waste Them All Away (3:47)
03. Sudden Death (3:27)
04. Those Who Will Remain (4:13)
05. Descent into the Maelstrom (4:23)
06. Apotheosis (4:44)
07. Psychomachia (3:46)
08. No More Heroes (3:34)
09. Pro Patria Mori (5:42)
10. Black Lotus (9:34)

Код:

Exact Audio Copy V1.1 from 23. June 2015

EAC extraction logfile from 2. April 2016, 11:21

Holy Grail / Times Of Pride And Peril

Used drive  : PIONEER BD-RW   BDR-209D   Adapter: 0  ID: 5

Read mode               : Secure
Utilize accurate stream : Yes
Defeat audio cache      : Yes
Make use of C2 pointers : No

Read offset correction                      : 667
Overread into Lead-In and Lead-Out          : No
Fill up missing offset samples with silence : Yes
Delete leading and trailing silent blocks   : No
Null samples used in CRC calculations       : Yes
Used interface                              : Installed external ASPI interface

Used output format              : User Defined Encoder
Selected bitrate                : 768 kBit/s
Quality                         : High
Add ID3 tag                     : No
Command line compressor         : C:\Program Files (x86)\Exact Audio Copy\FLAC\FLAC.EXE
Additional command line options : -6 -V -T "ARTIST=%artist%" -T "TITLE=%title%" -T "ALBUM=%albumtitle%" -T "DATE=%year%" -T "TRACKNUMBER=%tracknr%" -T "GENRE=%genre%" -T "COMMENT=%comment%" -T "BAND=%albuminterpret%" -T "ALBUMARTIST=%albuminterpret%" -T "COMPOSER=%composer%" %haslyrics%--tag-from-file=LYRICS="%lyricsfile%"%haslyrics% -T "DISCNUMBER=%cdnumber%" -T "TOTALDISCS=%totalcds%" -T "TOTALTRACKS=%numtracks%" %hascover%--picture="%coverfile%"%hascover% %source% -o %dest%

TOC of the extracted CD

     Track |   Start  |  Length  | Start sector | End sector
    ---------------------------------------------------------
        1  |  0:00.00 |  3:46.17 |         0    |    16966
        2  |  3:46.17 |  3:47.02 |     16967    |    33993
        3  |  7:33.19 |  3:27.24 |     33994    |    49542
        4  | 11:00.43 |  4:12.71 |     49543    |    68513
        5  | 15:13.39 |  4:23.30 |     68514    |    88268
        6  | 19:36.69 |  4:43.46 |     88269    |   109539
        7  | 24:20.40 |  3:45.57 |    109540    |   126471
        8  | 28:06.22 |  3:33.65 |    126472    |   142511
        9  | 31:40.12 |  5:41.46 |    142512    |   168132
       10  | 37:21.58 |  9:33.69 |    168133    |   211176

Range status and errors

Selected range

     Filename E:\MUSIC\Holy Grail - Times Of Pride And Peril.wav

     Peak level 99.5 %
     Extraction speed 2.8 X
     Range quality 99.9 %
     Test CRC 30531AA2
     Copy CRC 324E38E0
     Copy OK

No errors occurred

AccurateRip summary

Track  1  not present in database
Track  2  not present in database
Track  3  not present in database
Track  4  not present in database
Track  5  not present in database
Track  6  not present in database
Track  7  not present in database
Track  8  not present in database
Track  9  not present in database
Track 10  not present in database

None of the tracks are present in the AccurateRip database

End of status report

Код:

REM GENRE Metal
REM DATE 2016
REM DISCID 850AFF0A
REM COMMENT "ExactAudioCopy v1.1"
PERFORMER "Holy Grail"
TITLE "Times Of Pride And Peril"
FILE "Holy Grail - Times Of Pride And Peril.flac" WAVE
  TRACK 01 AUDIO
    TITLE "Crystal King"
    PERFORMER "Holy Grail"
    INDEX 01 00:00:00
  TRACK 02 AUDIO
    TITLE "Waste Them All Away"
    PERFORMER "Holy Grail"
    INDEX 01 03:46:17
  TRACK 03 AUDIO
    TITLE "Sudden Death"
    PERFORMER "Holy Grail"
    INDEX 01 07:33:19
  TRACK 04 AUDIO
    TITLE "Those Who Will Remain"
    PERFORMER "Holy Grail"
    INDEX 01 11:00:43
  TRACK 05 AUDIO
    TITLE "Descent into the Maelstrom"
    PERFORMER "Holy Grail"
    INDEX 01 15:13:39
  TRACK 06 AUDIO
    TITLE "Apotheosis"
    PERFORMER "Holy Grail"
    INDEX 01 19:36:69
  TRACK 07 AUDIO
    TITLE "Psychomachia"
    PERFORMER "Holy Grail"
    INDEX 01 24:20:40
  TRACK 08 AUDIO
    TITLE "No More Heroes"
    PERFORMER "Holy Grail"
    INDEX 01 28:06:22
  TRACK 09 AUDIO
    TITLE "Pro Patria Mori"
    PERFORMER "Holy Grail"
    INDEX 01 31:40:12
  TRACK 10 AUDIO
    TITLE "Black Lotus"
    PERFORMER "Holy Grail"
    INDEX 01 37:21:58





pb.wtf



Скачать Holy Grail - Times Of Pride And Peril - 2016 через торрент http://i102.fastpic.ru/big/2018/0215/b7/0cd77a8d7cd07e4b36e055c095288bb7.png Скачать фильм Holy Grail - Times Of Pride And Peril - 2016через торрент бесплантно в хорошем качестве Трэклист Crystal King (3:46) Waste Them All Away (3:47) Sudden Death (3:27) Those Who Will Remain (4:13) ... 5 10 1
Торрент: Зарегистрирован [2018-02-15 14:57] · скачан: 8 раз
Статус: √ проверено
Размер: 357 MB
Как cкачать? Как скачать Holy Grail - Times Of Pride And Peril - 2016 через торрент | qTorrent

28-11-2019 20:33  

Отключить всю рекламу на сайте

    Дорогой пользователь! Огромная просьба, поблагодарите релизера, оцените раздачу и оставьте свои комментарий, если Вы скачали Holy Grail - Times Of Pride And Peril - 2016 через торрент бесплатно! Внесите свою лепту в развитие PiratBit!
    Комментировать посты могут только пользователи прошедшие не сложную регистрацию
    Показать сообщения:    

    Holy Grail - Times Of Pride And Peril - 2016 через торрент
    Скачать бесплатно Holy Grail - Times Of Pride And Peril - 2016
    Holy Grail - Times Of Pride And Peril - 2016 скачать торрент
    Holy Grail - Times Of Pride And Peril - 2016 смотреть онлайн
    Cкачать фильм Holy Grail - Times Of Pride And Peril - 2016 бесплатно
    Holy Grail - Times Of Pride And Peril - 2016 скачать торрент в хорошем качестве
    Holy Grail - Times Of Pride And Peril - 2016 смотреть онлайн бесплатно в хорошем качестве


    Вы не можете начинать темы
    Вы не можете отвечать на сообщения
    Вы не можете редактировать свои сообщения
    Вы не можете удалять свои сообщения
    Вы не можете голосовать в опросах
    Вы не можете прикреплять файлы к сообщениям
    Вы можете скачивать файлы