Ссылка на приватное зеркало всего за 1$. Внимание количество ограничено!!!

iTunes

1+1

iTunes

мы

WEB-DL

1

iTunes

Чернобыль

iTunes

Ральф против интернета

Лицензия

ПШазам

Лицензия

Оно 2

Лицензия

30
pack

Вам бонус

ВАЖНО

!!Акция!!

Alien_RageХит недели

RePack

Resident Evil 21

ИГРА 18+

pack

RePack

jed

!!Акция!!

Alien_Rage

RePack

fifa19

RePack

Assassins Creed: Odyssey

RePack

NEED FOR SPEED™ PAYBACK

3 сезон

9 сезон

Бесстыжие 9 сезон

Все сериалы

все сериалы на PB.wtf

RePack

FAR CRY 5
Ребята, катастрофически не хватает 1900р. для оплаты серверов за Октябрь (всвязи с блокировками трафик упал в 3 раза), 1-2р., выручайте.
  

День мертвецов: Злая кровь / Day of the Dead: Bloodline (Гектор Эрнандес / Hèctor Hernández Vicens) [2018, ужасы, BDRip-AVC] Dub [iTunes] pb.wtf

День мертвецов: Злая кровь через торрент pb.wtf

Раздают: 2 [ 0 KB/s ]
Размер: 1.41 GB | Добавлен: 1 год 9 мес. назад | Торрент скачан:441 раз
Скачать  

15-02-2018 16:01 День мертвецов: Злая кровь Скачать торрент  

День мертвецов: Злая кровь
Day of the Dead: Bloodline

«Every day has its end»


Страна: США
Жанр: ужасы

Год выпуска: 2018
Продолжительность: 01:30:35

Перевод: Профессиональный (полное дублирование) [iTunes]
Субтитры: нет
Оригинальная аудиодорожка: нет

Режиссер: Гектор Эрнандес / Hèctor Hernández Vicens

В ролях: Софи Скелтон, Джонатон Шек, Джефф Гам, Маркус Ванко, Марк Смит, Лиллиэн Бланкеншип, Шари Уотсон, Рэйчел О’Мира, Люк Казинс, Лорина Камбурова, Кристина Серафини, Дэбби Шерман

Описание:
Чудовищный вирус, превращающий людей в зомби, поставил под угрозу само существование человеческой расы. Группе военных удалось укрыться в катакомбах, где молодая и обаятельная Зои проводит опыты по поиску вакцины. Для нахождения нужной формулы не хватает лишь одного «элемента». На его поиски отправляется группа спецназевцев. Дерзкая вылазка в «мёртвую зону» оборачивается провалом и запускает обратный отсчет времени.



Релиз:

Автор рипа: stalkerok | Моя группа

Сэмпл

Качество видео: BDRip-AVC [Day of the Dead Bloodline 2018 1080p Blu-ray AVC DTS-HD MA 5.1]
Формат видео: MKV
Видео кодек: AVC
Аудио кодек: AC3
Видео: AVC, 1855 Кбит/сек, 1072x450 (2.40:1), 23,976 кадр/сек
Аудио: AC3, 384 Кбит/сек, 48 КГц, 5.1 - русский
Навигация по главам: есть

---[Information] [14.02.2018 17:46:26] x264 [info]: frame I:1087 Avg QP:13.11 size: 64893
---[Information] [14.02.2018 17:46:26] x264 [info]: frame P:29869 Avg QP:16.77 size: 19954
---[Information] [14.02.2018 17:46:26] x264 [info]: frame B:99364 Avg QP:18.64 size: 5920

General
Unique ID : 244100822204564195160246467163203432950 (0xB7A41BB91C9D1C3B914DF3F685E9F1F6)
Complete name : M:\$new\Day of the Dead Bloodline (2018)\Day.of.the.Dead.Bloodline.2018.BDRip-AVC.RUS.stalkerok.new-team.mkv
Format : Matroska
Format version : Version 4 / Version 2
File size : 1.41 GiB
Duration : 1 h 30 min
Overall bit rate : 2 232 kb/s
Movie name : Day of the Dead: Bloodline (2018) (Rip by stalkerok)
Encoded date : UTC 2018-02-15 15:16:05
Writing application : mkvmerge v8.6.1 ('Flying') 64bit
Writing library : libebml v1.3.3 + libmatroska v1.4.4

Video
ID : 1
Format : AVC
Format/Info : Advanced Video Codec
Format profile : High@L4.1
Format settings, CABAC : Yes
Format settings, ReFrames : 12 frames
Codec ID : V_MPEG4/ISO/AVC
Duration : 1 h 30 min
Bit rate : 1 855 kb/s
Width : 1 072 pixels
Height : 450 pixels
Display aspect ratio : 2.40:1
Frame rate mode : Constant
Frame rate : 23.976 (24000/1001) FPS
Color space : YUV
Chroma subsampling : 4:2:0
Bit depth : 8 bits
Scan type : Progressive
Bits/(Pixel*Frame) : 0.160
Stream size : 1.17 GiB (83%)
Title : Day of the Dead: Bloodline (2018) (Rip by stalkerok)
Writing library : x264 core 152 r2851kMod ba24899
Encoding settings : cabac=1 / ref=12 / deblock=1:-3:-2 / analyse=0x3:0x133 / me=umh / subme=11 / psy=1 / fade_compensate=0.00 / psy_rd=1.00:0.00 / mixed_ref=1 / me_range=32 / chroma_me=1 / trellis=2 / 8x8dct=1 / cqm=0 / deadzone=21,11 / fast_pskip=0 / chroma_qp_offset=-2 / threads=12 / lookahead_threads=3 / sliced_threads=0 / nr=0 / decimate=0 / interlaced=0 / bluray_compat=0 / constrained_intra=0 / bframes=14 / b_pyramid=2 / b_adapt=2 / b_bias=0 / direct=3 / weightb=1 / open_gop=0 / weightp=2 / keyint=240 / keyint_min=23 / scenecut=40 / intra_refresh=0 / rc_lookahead=60 / rc=2pass / mbtree=0 / bitrate=1855 / ratetol=1.0 / qcomp=0.65 / qpmin=0 / qpmax=69 / qpstep=4 / cplxblur=20.0 / qblur=0.5 / vbv_maxrate=50000 / vbv_bufsize=62500 / nal_hrd=none / filler=0 / ip_ratio=1.40 / pb_ratio=1.30 / aq=3:0.80
Default : Yes
Forced : No

Audio
ID : 2
Format : AC-3
Format/Info : Audio Coding 3
Mode extension : CM (complete main)
Format settings, Endianness : Big
Codec ID : A_AC3
Duration : 1 h 30 min
Bit rate mode : Constant
Bit rate : 384 kb/s
Channel(s) : 6 channels
Channel positions : Front: L C R, Side: L R, LFE
Sampling rate : 48.0 kHz
Frame rate : 31.250 FPS (1536 spf)
Compression mode : Lossy
Stream size : 249 MiB (17%)
Language : Russian
Default : Yes
Forced : No

Menu
00:00:00.000 : en:Chapter 1
00:04:51.916 : en:Chapter 2
00:12:20.948 : en:Chapter 3
00:17:16.952 : en:Chapter 4
00:21:41.300 : en:Chapter 5
00:26:06.439 : en:Chapter 6
00:33:02.647 : en:Chapter 7
00:40:11.117 : en:Chapter 8
00:45:24.763 : en:Chapter 9
00:49:54.408 : en:Chapter 10
00:55:40.879 : en:Chapter 11
01:02:40.298 : en:Chapter 12
01:07:16.365 : en:Chapter 13
01:12:16.540 : en:Chapter 14
01:17:48.830 : en:Chapter 15
01:23:16.700 : en:Chapter 16
скриншот   скриншот   скриншот   скриншот   скриншот   скриншот   скриншот  
pb.wtf



Скачать День мертвецов: Злая кровь через торрент http://i6.imageban.ru/out/2017/09/18/2ff75c0c358795c5946784cc1680714d.png Скачать фильм День мертвецов: Злая кровь через торрент бесплантно в хорошем качестве Описание:Чудовищный вирус, превращающий людей в зомби, поставил под угрозу само существование человеческой расы. Группе военных удалось ... 8.8 10 11
Info! Золотая раздача, скачанное не засчитывается.
Торрент: Зарегистрирован [2018-02-15 16:01] · скачан: 441 раз
Статус: √ проверено
Размер: 1.41 GB
Как cкачать? Как скачать День мертвецов: Злая кровь через торрент | qTorrent

% Раздел Тема Автор DL S | L
Фильмы 2018 [DVDrip, WEB-DLRip, HDrip] (DUB, MVO) [ 2.14 GB ] День мертвецов: Злая кровь / Day of the Dead: Bloodline [2018 BDRip-AVC] Dub sokol_ok Скачать
2 | 0
Фильмы 2018 [DVDrip, WEB-DLRip, HDrip] (DUB, MVO) [ 745 MB ] День мертвецов: Злая кровь / Day of the Dead: Bloodline [2018 BDRip-AVC] Dub sokol_ok Скачать
2 | 0
Фильмы 2018 [DVDrip, WEB-DLRip, HDrip] (DUB, MVO) [ 1.58 GB ] День мертвецов: Злая кровь / Day of the Dead: Bloodline [2018 HDRip-AVC] bober100 Скачать
1 | 0
# Фильмы [HD 720p, 1080p] (Хороший звук DUB, MVO) [ 6.8 GB ] День мертвецов: Злая кровь / Day of the Dead: Bloodline [2018 BDRip 1080p] bober100 Скачать
1 | 0
# Фильмы [HD 720p, 1080p] (Хороший звук DUB, MVO) [ 4.61 GB ] День мертвецов: Злая кровь / Day of the Dead: Bloodline [2018 BDRip 720p] bober100 Скачать
1 | 0
Фильмы 2018 [DVDrip, WEB-DLRip, HDrip] (DUB, MVO) [ 1.37 GB ] День мертвецов: Злая кровь / Day of the Dead: Bloodline [2018 HDRip] bober100 Скачать
1 | 0
Фильмы (WEB-DL 720p, 1080p) [ 3.07 GB ] День мертвецов: Злая кровь / Day of the Dead: Bloodline [2018 WEB-DL 1080p] - -Lexx- Скачать
1 | 0

28-11-2019 20:33  

Отключить всю рекламу на сайте

26-02-2018 19:57 День мертвецов: Злая кровь Скачать торрент  

Спс, гляну что за треш!pb.wtf



04-03-2018 13:58 День мертвецов: Злая кровь Скачать торрент  

Как там, тема сисег "молодой и обаятельной" Зои раскрыта?pb.wtf



06-03-2018 13:45 День мертвецов: Злая кровь Скачать торрент  

Такая чушь!pb.wtf



    Дорогой пользователь! Огромная просьба, поблагодарите релизера, оцените раздачу и оставьте свои комментарий, если Вы скачали День мертвецов: Злая кровь через торрент бесплатно! Внесите свою лепту в развитие PiratBit!
    Комментировать посты могут только пользователи прошедшие не сложную регистрацию
    Показать сообщения:    

    День мертвецов: Злая кровь через торрент
    Скачать бесплатно День мертвецов: Злая кровь
    День мертвецов: Злая кровь скачать торрент
    День мертвецов: Злая кровь смотреть онлайн
    Cкачать фильм День мертвецов: Злая кровь бесплатно
    День мертвецов: Злая кровь скачать торрент в хорошем качестве
    День мертвецов: Злая кровь смотреть онлайн бесплатно в хорошем качестве


    Вы не можете начинать темы
    Вы не можете отвечать на сообщения
    Вы не можете редактировать свои сообщения
    Вы не можете удалять свои сообщения
    Вы не можете голосовать в опросах
    Вы не можете прикреплять файлы к сообщениям
    Вы можете скачивать файлы