Ссылка на приватное зеркало всего за 1$. Внимание количество ограничено!!!

OK

1+1

iTunes

мы

OK

1

WEB-DLRip

Джокер

Пифагор

Ведьмак / The Witcher сериал

iTunes

ПШазам

ОК

Оно 2

iTunes

30
pack

Вам бонус

ВАЖНО

!!Акция!!

Alien_RageХит недели

RePack

Resident Evil 21

ИГРА 18+

pack

RePack

jed

RePack

fifa19

RePack

Assassins Creed: Odyssey

RePack

NEED FOR SPEED™ PAYBACK

4 сезон

9 сезон

Бесстыжие 9 сезон

Все сериалы

все сериалы на PB.wtf

RePack

FAR CRY 5
  

Охота на человека / Manhunt (Джон Ву) [2017, боевик, триллер, криминал, BDRip 720p] MVO [КОЛОБОК] pb.wtf

Охота на человека через торрент pb.wtf

Размер: 4.8 GB | Добавлен: 1 год 11 мес. назад | Торрент скачан:103 раза
Скачать  

15-02-2018 17:32 Охота на человека Скачать торрент  

Охота на человека / ManhuntГод выпуска: 2017
Страна: Китай, Гонконг
Жанр: боевик, триллер, криминал
Продолжительность: 01:49:56
Перевод: Любительский (многоголосый) [КОЛОБОК]
Субтитры: отсутствуют

Режиссер: Джон Ву

rating

В ролях:

Чжан Ханьюй, Стефи Ци, Масахару Фукуяма, Ха Джи-вон, Дзюн Кунимура, Анджелес Ву, Наото Такэнака, Ясуаки Курата, Такуми Саито, Нанами Сакураба

Описание: Адвокат, обвиняемый в убийстве, которого он не совершал, скрывается от преследования полиции и наёмных убийц и пытается доказать свою невиновность.

Качество: BDRip 720p
Формат: MKV
Видео кодек: H.264
Аудио кодек: AC3

Видео: 5796 kb/s, 1280x536
Аудио#1: AC3, 2 ch, 448 Кбит/с

скриншот  скриншот  скриншот  

Общее
Уникальный идентификатор : 249494783447113014495250197160707681545 (0xBBB2F28B7CF7EED586A919C3B7E6ED09)
Полное имя : D:\Manhunt.2017.P.BDRip.72Op.mkv
Формат : Matroska
Версия формата : Version 2
Размер файла : 4,80 Гбайт
Продолжительность : 1 ч. 49 м.
Режим общего битрейта : Переменный
Общий поток : 6246 Кбит/сек
Дата кодирования : UTC 2018-02-15 08:40:46
Программа кодирования : mkvmerge v8.3.0 ('Over the Horizon') 64bit
Библиотека кодирования : libebml v1.3.1 + libmatroska v1.4.2

Видео
Идентификатор : 1
Формат : AVC
Формат/Информация : Advanced Video Codec
Профиль формата : High@L4.1
Параметр CABAC формата : Да
Параметр ReFrames формата : 4 кадра
Идентификатор кодека : V_MPEG4/ISO/AVC
Продолжительность : 1 ч. 49 м.
Вид битрейта : Переменный
Битрейт : 5796 Кбит/сек
Номинальный битрейт : 6300 Кбит/сек
Максимальный битрейт : 6300 Кбит/сек
Ширина : 1280 пикселей
Высота : 536 пикселей
Соотношение сторон : 2,40:1
Режим частоты кадров : Постоянный
Частота кадров : 23,976 (24000/1001) кадра/сек
Стандарт вещания : Component
Цветовое пространство : YUV
Субдискретизация насыщенности : 4:2:0
Битовая глубина : 8 бит
Тип развёртки : Прогрессивная
Бит/(Пиксели*Кадры) : 0.345
Размер потока : 4,36 Гбайт (91%)
Библиотека кодирования : x264 core 148
Настройки программы : cabac=1 / ref=4 / deblock=1:0:0 / analyse=0x3:0x3 / me=dia / subme=1 / psy=1 / psy_rd=1.00:0.00 / mixed_ref=0 / me_range=16 / chroma_me=1 / trellis=0 / 8x8dct=1 / cqm=1 / deadzone=21,11 / fast_pskip=1 / chroma_qp_offset=0 / threads=17 / lookahead_threads=2 / sliced_threads=0 / slices=1 / nr=0 / decimate=1 / interlaced=0 / minigop=0 / stitchable=1 / constrained_intra=0 / bframes=3 / b_pyramid=0 / b_adapt=0 / b_bias=0 / direct=1 / weightb=1 / open_gop=1 / weightp=0 / keyint=240 / keyint_min=23 / scenecut=40 / intra_refresh=0 / rc_lookahead=0 / rc=cbr / mbtree=0 / bitrate=6300 / ratetol=1.0 / qcomp=0.60 / qpmin=1 / qpmax=69 / qpstep=4 / vbv_maxrate=6300 / vbv_bufsize=6300 / nal_hrd=vbr / filler=0 / ip_ratio=1.40 / pb_ratio=1.30 / aq=1:1.00
Default : Да
Forced : Нет
Цветовой диапазон : Limited
Основные цвета : BT.709
Характеристики трансфера : BT.709
Коэффициенты матрицы : BT.709

Аудио
Идентификатор : 2
Формат : AC-3
Формат/Информация : Audio Coding 3
Расширение режима : CM (complete main)
Параметр Endianness формата : Big
Идентификатор кодека : A_AC3
Продолжительность : 1 ч. 49 м.
Вид битрейта : Постоянный
Битрейт : 448 Кбит/сек
Каналы : 2 канала
Расположение каналов : Front: L R
Частота : 48,0 КГц
Частота кадров : 31,250 кадров/сек (1536 spf)
Метод сжатия : С потерями
Размер потока : 352 Мбайт (7%)
Default : Да
Forced : Нет




pb.wtf



Скачать Охота на человека через торрент http://img12.lostpic.net/2018/02/15/7c0079877fc977ef22c2df136f969203.jpg Скачать фильм Охота на человека через торрент бесплантно в хорошем качестве Описание: Адвокат, обвиняемый в убийстве, которого он не совершал, скрывается от преследования полиции и наёмных убийц и пытается доказать ... 7.8 10 4
Торрент: Зарегистрирован [2018-02-15 17:32] · скачан: 103 раз
Статус: # сомнительно
Размер: 4.8 GB
Как cкачать? Как скачать Охота на человека через торрент | qTorrent

% Раздел Тема Автор DL S | L
Фильмы с авторской озвучкой [ 1.47 GB ] Охота на человека / Затравленные / Manhunt [2017 BDRip] [AVO] killermax2013 Скачать
2 | 0
T Фильмы (мультфильмы) cо спонсором показа (Новинки AVI/MKV) [ 1.37 GB ] Охота на человека / Manhunt [2017 HDRip] MVO [КОЛОБОК] bober100 Скачать
2 | 0

28-11-2019 20:33  

Отключить всю рекламу на сайте

    Дорогой пользователь! Огромная просьба, поблагодарите релизера, оцените раздачу и оставьте свои комментарий, если Вы скачали Охота на человека через торрент бесплатно! Внесите свою лепту в развитие PiratBit!
    Комментировать посты могут только пользователи прошедшие не сложную регистрацию
    Показать сообщения:    

    Охота на человека через торрент
    Скачать бесплатно Охота на человека
    Охота на человека скачать торрент
    Охота на человека смотреть онлайн
    Cкачать фильм Охота на человека бесплатно
    Охота на человека скачать торрент в хорошем качестве
    Охота на человека смотреть онлайн бесплатно в хорошем качестве


    Вы не можете начинать темы
    Вы не можете отвечать на сообщения
    Вы не можете редактировать свои сообщения
    Вы не можете удалять свои сообщения
    Вы не можете голосовать в опросах
    Вы не можете прикреплять файлы к сообщениям
    Вы можете скачивать файлы