2 сезон

iTunes

1 сезон

1

iTunes

iTunes

iTunes

1 сезон

RePack

30

ИГРА 18+

pack

ВАЖНО

!!Акция!!

Alien_RageХит недели

RePack

MK11
pack

Забери бонус

RePack

jed

!!Акция!!

Alien_Rage

RePack

fifa19

RePack

Assassins Creed: Odyssey

RePack

NEED FOR SPEED™ PAYBACK

4 сезон

9 сезон

Бесстыжие 9 сезон

Все сериалы

все сериалы на PB.wtf

RePack

FAR CRY 5
  

Тайна Коко / Coco (Ли Анкрич, Эдриан Молина) [2017 г., мультфильм, мюзикл, фэнтези, комедия, детектив, приключения, семейный, BDRip, Дубляж iTunes] pb.wtf

Тайна Коко через торрент pb.wtf

Размер: 2.05 GB | Добавлен: 2 года 8 мес. назад | Торрент скачан:130 раз
Скачать  

16-02-2018 04:49 Тайна Коко Скачать торрент  

Тайна Коко / Coco

Год выпуска: 2017
Страна: США
Жанр: мультфильм, мюзикл, фэнтези, комедия, детектив, приключения, семейный
Продолжительность: 01:45:02
Перевод: Дубляж iTunes
Субтитры: нет

Режиссер: Ли Анкрич, Эдриан Молина

Премьера в мире: 20 октября 2017

В ролях: Энтони Гонсалес, Гаэль Гарсиа Берналь, Бенджамин Брэтт, Аланна Юбак, Рене Виктор, Хайме Камиль, Альфонсо Арау, Херберт Сигенса, Габриэль Иглесиас, Ломбардо Бойяр

Описание: 12-летний Мигель живет в мексиканской деревушке в семье сапожников и тайно мечтает стать музыкантом. Тайно — потому что в его семейном клане музыка считается проклятием. Когда-то его прадед оставил свою жену, прабабку Мигеля, ради мечты, которая теперь не дает спокойно жить Мигелю. С тех пор музыкальная тема в семье стала табу. Мигель обнаруживает, что между ним и его любимым певцом Эрнесто де ла Крусом, ныне покойным, существует некая — пока неназванная — связь. Паренек отправляется к своему кумиру в Страну Мертвых, где встречает души своих предков. Коко знакомится там с духом-трикстером по имени Эктор (в облике скелета), который становится его напарником-проводником. Вдвоем они отправляются на поиски де ла Круса.

Качество: BDRip
Формат: AVI
Видео кодек: XviD
Аудио кодек: AC3
Видео: XviD,720x304, 23.976 fps, 2013 Кбит/с
Аудио#1: AC3,384 kb/s, 6 ch, 48.0 KHz [Russian]
Аудио#2: AC3,384 kb/s, 6 ch, 48.0 KHz [English]
скриншот   скриншот   скриншот   скриншот  

General
Complete name : H:\релизы.торрентфайл\T4yH4.K0K0.2O17.D.HdRip.21OOMB.avi
Format : AVI
Format/Info : Audio Video Interleave
Format profile : OpenDML
File size : 2.05 GiB
Duration : 1h 45mn
Overall bit rate : 2 799 Kbps
Movie name : T4yH4.K0K0.2O17.D.HdRip.21OOMB
Writing application : VirtualDubMod 1.5.10.2 (build 2540/release)
Original source form/Name : Movie

Video
ID : 0
Format : MPEG-4 Visual
Format profile : Advanced Simple@L5
Format settings, BVOP : 2
Format settings, QPel : No
Format settings, GMC : No warppoints
Format settings, Matrix : Default (MPEG)
Codec ID : XVID
Codec ID/Hint : XviD
Duration : 1h 45mn
Bit rate : 2 013 Kbps
Width : 720 pixels
Height : 304 pixels
Display aspect ratio : 2.35:1
Frame rate : 23.976 fps
Color space : YUV
Chroma subsampling : 4:2:0
Bit depth : 8 bits
Scan type : Progressive
Compression mode : Lossy
Bits/(Pixel*Frame) : 0.384
Stream size : 1.48 GiB (72%)
Writing library : XviD 1.2.1 (UTC 2008-12-04)

Audio #1
ID : 1
Format : AC-3
Format/Info : Audio Coding 3
Mode extension : CM (complete main)
Format settings, Endianness : Big
Codec ID : 2000
Duration : 1h 45mn
Bit rate mode : Constant
Bit rate : 384 Kbps
Channel(s) : 6 channels
Channel positions : Front: L C R, Side: L R, LFE
Sampling rate : 48.0 KHz
Bit depth : 16 bits
Compression mode : Lossy
Stream size : 288 MiB (14%)
Alignment : Split accross interleaves
Interleave, duration : 42 ms (1.00 video frame)
Interleave, preload duration : 500 ms

Audio #2
ID : 2
Format : AC-3
Format/Info : Audio Coding 3
Mode extension : CM (complete main)
Format settings, Endianness : Big
Codec ID : 2000
Duration : 1h 45mn
Bit rate mode : Constant
Bit rate : 384 Kbps
Channel(s) : 6 channels
Channel positions : Front: L C R, Side: L R, LFE
Sampling rate : 48.0 KHz
Bit depth : 16 bits
Compression mode : Lossy
Stream size : 288 MiB (14%)
Alignment : Split accross interleaves
Interleave, duration : 42 ms (1.00 video frame)
Interleave, preload duration : 500 ms

pb.wtf



Скачать Тайна Коко через торрент http://pic1.kartinco.top/images/11/n5u7s.jpg Скачать фильм Тайна Коко через торрент бесплантно в хорошем качестве Описание: 12-летний Мигель живет в мексиканской деревушке в семье сапожников и тайно мечтает стать музыкантом. Тайно — потому что в его ... 9.8 10 6
Info! Серебряная раздача, засчитывается только 50% скачанного.
Торрент: Зарегистрирован [2018-02-16 04:49] · скачан: 130 раз
Статус: √ проверено
Размер: 2.05 GB
Как cкачать? Как скачать Тайна Коко через торрент | qTorrent

% Раздел Тема Автор DL S | L
Зарубежные Мультфильмы (BDRip 1080p, 720p, Blu-ray, BD-Remux) [ 37.48 GB ] Тайна Коко 3Д / Coco 3D [2017 мультфильм мюзикл Blu-ray EUR 1080p] DUB [] [2D 3D] bober100 Скачать
1 | 0
Мультфильмы (48-60 fps) [ 4.71 GB ] Тайна Коко / Coco [2017 мультфильм музыка BDRip 720p 60 fps от еnvy / NNNB] еnvy Скачать
17 | 0
Зарубежные Мультфильмы (BDRip 1080p, 720p, Blu-ray, BD-Remux) [ 5.23 GB ] Тайна Коко / Coco [2017 мультфильм мюзикл BDRip 720p] DUB [] bober100 Скачать
2 | 0
3D Мультфильмы [ 8.42 GB ] Тайна Коко в 3Д / Coco 3D [2017 мультфильм мюзикл BDRip 1080p] DUB [Line] +DUB [] [Half OverUnder / Вертикальная анаморфная стереопара] bober100 Скачать
1 | 0
3D Мультфильмы [ 11.33 GB ] Тайна Коко в 3Д / Coco 3D [2017 мультфильм приключени BDrip 1080p лицензия] OverUnder / Вертикальная стереопара serega768 Скачать
1 | 0
Иностранные мультфильмы [ 2.07 GB ] Тайна Коко / Coco [2017 мультфильм BDRip-AVC] - ExKinoRay Enigma2010 Скачать
1 | 0
Зарубежные Мультфильмы (BDRip 1080p, 720p, Blu-ray, BD-Remux) [ 25.48 GB ] Тайна Коко / Coco [2017 мультфильм мюзикл BD Remux 1080p] DUB [] [2D 3D] bober100 Скачать
1 | 0

28-11-2019 20:33  

Отключить всю рекламу на сайте

    Дорогой пользователь! Огромная просьба, поблагодарите релизера, оцените раздачу и оставьте свои комментарий, если Вы скачали Тайна Коко через торрент бесплатно! Внесите свою лепту в развитие PiratBit!
    Комментировать посты могут только пользователи прошедшие не сложную регистрацию
    Показать сообщения:    

    Тайна Коко через торрент
    Скачать бесплатно Тайна Коко
    Тайна Коко скачать торрент
    Тайна Коко смотреть онлайн
    Cкачать фильм Тайна Коко бесплатно
    Тайна Коко скачать торрент в хорошем качестве
    Тайна Коко смотреть онлайн бесплатно в хорошем качестве


    Вы не можете начинать темы
    Вы не можете отвечать на сообщения
    Вы не можете редактировать свои сообщения
    Вы не можете удалять свои сообщения
    Вы не можете голосовать в опросах
    Вы не можете прикреплять файлы к сообщениям
    Вы можете скачивать файлы