Ссылка на приватное зеркало нашего сайта всего за 1$. Внимание количество ограничено!!!

2 сезон

iTunes

1 сезон

1

iTunes

iTunes

iTunes

1 сезон

RePack

30

ИГРА 18+

pack

ВАЖНО

!!Акция!!

Alien_RageХит недели

RePack

MK11
pack

Забери бонус

RePack

jed

!!Акция!!

Alien_Rage

RePack

fifa19

RePack

Assassins Creed: Odyssey

RePack

NEED FOR SPEED™ PAYBACK

4 сезон

9 сезон

Бесстыжие 9 сезон

Все сериалы

все сериалы на PB.wtf

RePack

FAR CRY 5
  

Крепость Бадабер / 1-4 серии из 4 (Кирилл Белевич) [2018 г., Драма, военный фильм, HDTVRip] pb.wtf

Крепость Бадабер через торрент pb.wtf

Качают: 1 [ 0 KB/s ]
Размер: 2.75 GB | Добавлен: 2 года 8 мес. назад | Торрент скачан:332 раза
Скачать  

16-02-2018 08:27 Крепость Бадабер Скачать торрент  

Крепость Бадабер /1-4 серии из 4/
Год выпуска: 2018
Страна: Россия
Жанр: Драма, военный фильм
Продолжительность: 4 х ~ 00:50:00
Субтитры: нет

Режиссер: Кирилл Белевич



В ролях: Сергей Марин, Светлана Иванова, Ирина Розанова, Сергей Колесников (II), Микаэл Джанибекян, Рамиль Сабитов, Василий Мищенко, Илья Маланин, Александр Фисенко, Станислав Курач, Марцин Стец, Данил Можаев, Александр Алёшкин, Константин Балакирев, Дмитрий Соколов (VI), Артём Мельничук, Всеволод Шергин, Никита Кологривый

Описание: Фильм о событиях, произошедших во время Афганской войны. В центре сюжета - восстание в лагере Бадабер. Весна 1985-ого. По заданию ГРУ разведчик Юрий Никитин проникает в пакистанскую крепость Бадабер. Никитин должен собрать доказательства существования здесь центра подготовки моджахедов под руководством ЦРУ. Выполнив опасное задание, Никитин видит на территории крепости группу русских военнопленных, среди которых узнает своего друга Михаила, сына своего командира генерала Колесова, несколько лет считавшегося пропавшим без вести. Никитин решает остаться и спасти обреченных на смерть ребят....

Качество: HDTVRip
Формат: AVI
Видео кодек: XviD
Аудио кодек: AC3
Видео: XviD, ~ 1800 Кбит/с, 720x400
Аудио#1: AC3, 2 ch, 192 Кбит/с
скриншот   скриншот   скриншот   скриншот   скриншот  

General
Complete name : H:\релизы.торрентфайл\Krepost Badaber.HDTVRip.GeneralFilm\01.Krepost Badaber.HDTVRip.GeneralFilm.avi
Format : AVI
Format/Info : Audio Video Interleave
File size : 697 MiB
Duration : 48mn 46s
Overall bit rate : 1 999 Kbps

Video
ID : 0
Format : MPEG-4 Visual
Format profile : Advanced Simple@L5
Format settings, BVOP : 1
Format settings, QPel : No
Format settings, GMC : No warppoints
Format settings, Matrix : Custom
Codec ID : XVID
Codec ID/Hint : XviD
Duration : 48mn 46s
Bit rate : 1 795 Kbps
Width : 720 pixels
Height : 400 pixels
Display aspect ratio : 16:9
Frame rate : 25.000 fps
Color space : YUV
Chroma subsampling : 4:2:0
Bit depth : 8 bits
Scan type : Progressive
Compression mode : Lossy
Bits/(Pixel*Frame) : 0.249
Stream size : 626 MiB (90%)
Writing library : XviD 73

Audio
ID : 1
Format : AC-3
Format/Info : Audio Coding 3
Mode extension : CM (complete main)
Format settings, Endianness : Big
Codec ID : 2000
Duration : 48mn 46s
Bit rate mode : Constant
Bit rate : 192 Kbps
Channel(s) : 2 channels
Channel positions : Front: L R
Sampling rate : 48.0 KHz
Bit depth : 16 bits
Compression mode : Lossy
Stream size : 67.0 MiB (10%)
Alignment : Aligned on interleaves
Interleave, duration : 32 ms (0.80 video frame)

pb.wtf



Скачать Крепость Бадабер через торрент http://pic1.kartinco.top/images/11/dsb4d.jpg Скачать фильм Крепость Бадабер через торрент бесплантно в хорошем качестве Описание: Фильм о событиях, произошедших во время Афганской войны. В центре сюжета - восстание в лагере Бадабер. Весна 1985-ого. По заданию ... 9.8 10 8
Торрент: Зарегистрирован [2018-02-16 08:27] · скачан: 332 раз
Статус: √ проверено
Размер: 2.75 GB
Как cкачать? Как скачать Крепость Бадабер через торрент | qTorrent

% Раздел Тема Автор DL S | L
Наши сериалы [ 5.08 GB ] Крепость Бадабер / Серии 1-4 из 4 [2018 военный фильм HDTVRip 720p] bober100 Скачать
1 | 0
Наши сериалы [ 3.02 GB ] Крепость Бадабер / Серии 1-4 из 4 [2018 военный фильм HDTVRip-AVC] bober100 Скачать
1 | 0
Наши сериалы [ 2.37 GB ] Крепость Бадабер / Серии: 1-4 из 4 [2017 военный SATRip-AVC] aleksan55 Скачать
1 | 0
Наши сериалы [ 2.55 GB ] Крепость Бадабер / Серии 1-4 из 4 [2018 военный фильм SATRip] bober100 Скачать
1 | 0

28-11-2019 20:33  

Отключить всю рекламу на сайте

    Дорогой пользователь! Огромная просьба, поблагодарите релизера, оцените раздачу и оставьте свои комментарий, если Вы скачали Крепость Бадабер через торрент бесплатно! Внесите свою лепту в развитие PiratBit!
    Комментировать посты могут только пользователи прошедшие не сложную регистрацию
    Показать сообщения:    

    Крепость Бадабер через торрент
    Скачать бесплатно Крепость Бадабер
    Крепость Бадабер скачать торрент
    Крепость Бадабер смотреть онлайн
    Cкачать фильм Крепость Бадабер бесплатно
    Крепость Бадабер скачать торрент в хорошем качестве
    Крепость Бадабер смотреть онлайн бесплатно в хорошем качестве


    Вы не можете начинать темы
    Вы не можете отвечать на сообщения
    Вы не можете редактировать свои сообщения
    Вы не можете удалять свои сообщения
    Вы не можете голосовать в опросах
    Вы не можете прикреплять файлы к сообщениям
    Вы можете скачивать файлы