Ссылка на приватное зеркало всего за 1$. Внимание количество ограничено!!!

iTunes

1+1

iTunes

мы

WEB-DL

1

iTunes

Чернобыль

iTunes

Ральф против интернета

Лицензия

ПШазам

Лицензия

Оно 2

Лицензия

30
pack

Вам бонус

ВАЖНО

!!Акция!!

Alien_RageХит недели

RePack

Resident Evil 21

ИГРА 18+

pack

RePack

jed

!!Акция!!

Alien_Rage

RePack

fifa19

RePack

Assassins Creed: Odyssey

RePack

NEED FOR SPEED™ PAYBACK

3 сезон

9 сезон

Бесстыжие 9 сезон

Все сериалы

все сериалы на PB.wtf

RePack

FAR CRY 5
Ребята, катастрофически не хватает 1900р. для оплаты серверов за Октябрь (всвязи с блокировками трафик упал в 3 раза), 1-2р., выручайте.
  

Каток и скрипка (Андрей Тарковский) [1960, СССР, драма, BDRip от AVP Studio] pb.wtf

Каток и скрипка через торрент pb.wtf

Размер: 742 MB | Добавлен: 1 год 9 мес. назад | Торрент скачан:9 раз
Скачать  

16-02-2018 09:02 Каток и скрипка Скачать торрент  

Каток и скрипка
Страна: СССР
Производство: Мосфильм

Жанр: драма
Год выпуска: 1960
Продолжительность: 00:45:54

Перевод: Не требуется
Cубтитры: нет
Оригинальная аудиодорожка: русский

Режиссер: Андрей Тарковский

В ролях:
Игорь Фомченко, Владимир Заманский, Наталья Архангельская...
Об актёрах подробней

Описание:
Импрессионистический рассказ о мальчике, скрипке и асфальтовом катке.
По лестнице большого дома крадучись пробирается семилетний Саша со скрипкой в руках. Но ватага ребят обнаруживает его. Взлетает в воздух футляр со скрипкой. Плохо пришлось бы музыканту, если бы не вступился за него рабочий - водитель катка Сергей. И когда Саша возвращается из музыкальной школы, на его долю выпадает неожиданное счастье - Сергей доверяет ему самостоятельно ппрокатиться на катке и даже берёт его с собой на обед.

Источник: Blu-ray 1080p
Качество видео: BDRip
Формат видео: AVI

Видео: 720x544 (4:3), 23,976 fps, XviD ~ 2059 kbps avg, 0.219 bit/pixel
Аудио: 48 kHz, Dolby Digital AC3 2.0, 192 kbps

Раздача от:
Общее
Полное имя : Katok.i.skripka.1960.BDRip_[New-team]_by_AVP_Studio.avi
Формат : AVI
Формат/Информация : Audio Video Interleave
Размер файла : 742 Мбайт
Продолжительность : 45 м. 54 с.
Общий поток : 2261 Кбит/сек
Программа кодирования : VirtualDubMod 1.5.10.3 | www.virtualdub-fr.org || (build 2550/release)
Библиотека кодирования : VirtualDubMod build 2550/release

Видео
Идентификатор : 0
Формат : MPEG-4 Visual
Профиль формата : Advanced Simple@L5
Настройки формата : BVOP1 / Custom Matrix
Параметр BVOP формата : 1
Параметр QPel формата : Нет
Параметр GMC формата : Без точки перехода
Параметр матрицы формата : Выборочная
Идентификатор кодека : XVID
Идентификатор кодека/Подсказка : XviD
Продолжительность : 45 м. 54 с.
Битрейт : 2059 Кбит/сек
Ширина : 720 пикселей
Высота : 544 пикселя
Соотношение сторон : 4:3
Частота кадров : 23,976 (24000/1001) кадра/сек
Цветовое пространство : YUV
Субдискретизация насыщенности : 4:2:0
Битовая глубина : 8 бит
Тип развёртки : Прогрессивная
Метод сжатия : С потерями
Бит/(Пиксели*Кадры) : 0.219
Размер потока : 676 Мбайт (91%)
Библиотека кодирования : XviD 73

Аудио
Идентификатор : 1
Формат : AC-3
Формат/Информация : Audio Coding 3
Идентификатор кодека : 2000
Продолжительность : 45 м. 54 с.
Вид битрейта : Постоянный
Битрейт : 192 Кбит/сек
Каналы : 2 канала
Расположение каналов : Front: L R
Частота : 48,0 КГц
Частота кадров : 31,250 кадров/сек (1536 SPF)
Битовая глубина : 16 бит
Метод сжатия : С потерями
Размер потока : 63,0 Мбайт (8%)
Выравнивание : Разделение по промежуткам
Продолжительность промежутка : 42 мс. (1,00 видеокадр)
Время предзагрузки промежутка : 500 мс
pb.wtf



Скачать Каток и скрипка через торрент http://i100.fastpic.ru/big/2018/0216/d1/70b497fe9939646d33f301e7a539c5d1.png Скачать фильм Каток и скрипка через торрент бесплантно в хорошем качестве Описание:Импрессионистический рассказ о мальчике, скрипке и асфальтовом катке.По лестнице большого дома крадучись пробирается семилетний ... 5 10 1
Info! Золотая раздача, скачанное не засчитывается.
Торрент: Зарегистрирован [2018-02-16 09:02] · скачан: 9 раз
Статус: √ проверено
Размер: 742 MB
Как cкачать? Как скачать Каток и скрипка через торрент | qTorrent

% Раздел Тема Автор DL S | L
Кино СССР [ 745 MB ] Каток и скрипка [1960 СССР BDRip-AVC от AVP Studio] AVP Studio Скачать
1 | 0
Кино СССР [ 1.09 GB ] Каток и скрипка [1960 СССР BDRip 720p от AVP Studio] AVP Studio Скачать
1 | 0

28-11-2019 20:33  

Отключить всю рекламу на сайте

    Дорогой пользователь! Огромная просьба, поблагодарите релизера, оцените раздачу и оставьте свои комментарий, если Вы скачали Каток и скрипка через торрент бесплатно! Внесите свою лепту в развитие PiratBit!
    Комментировать посты могут только пользователи прошедшие не сложную регистрацию
    Показать сообщения:    

    Каток и скрипка через торрент
    Скачать бесплатно Каток и скрипка
    Каток и скрипка скачать торрент
    Каток и скрипка смотреть онлайн
    Cкачать фильм Каток и скрипка бесплатно
    Каток и скрипка скачать торрент в хорошем качестве
    Каток и скрипка смотреть онлайн бесплатно в хорошем качестве


    Вы не можете начинать темы
    Вы не можете отвечать на сообщения
    Вы не можете редактировать свои сообщения
    Вы не можете удалять свои сообщения
    Вы не можете голосовать в опросах
    Вы не можете прикреплять файлы к сообщениям
    Вы можете скачивать файлы