новый адрес пиратбит piratbit
Мега распродажа FORZA HORIZON 4 ULTIMATE+ВСЕ DLC+ОНЛАЙН всего за 499р. 349 руб. (супер цена). Внимание количество ограничено!!!

iTunes

1+1

iTunes

мы

iTunes

1

iTunes

Чернобыль

iTunes

Ральф против интернета

Лицензия

ПШазам

Лицензия

Игра престолов

Лицензия

30
pack

ВАЖНО

!!Акция!!

Alien_RageХит недели

RePack

Resident Evil 21

ИГРА 18+

pack

RePack

Metro:Exodus

!!Акция!!

Alien_Rage

RePack

fifa19

RePack

Assassins Creed: Odyssey

RePack

NEED FOR SPEED™ PAYBACK

3 сезон

9 сезон

Бесстыжие 9 сезон

Все сериалы

все сериалы на PB.wtf

RePack

FAR CRY 5
Ребята, катастрофически не хватает 1900р. для оплаты серверов за Октябрь (всвязи с блокировками трафик упал в 3 раза), 1-2р., выручайте.
  

Каток и скрипка (Андрей Тарковский) [1960, СССР, драма, BDRip-AVC от AVP Studio] pb.wtf

Каток и скрипка через торрент pb.wtf

Размер: 745 MB | Добавлен: 1 год 8 мес. назад | Торрент скачан:15 раз
Скачать  

16-02-2018 09:05 Каток и скрипка Скачать торрент  

Каток и скрипка
Страна: СССР
Производство: Мосфильм

Жанр: драма
Год выпуска: 1960
Продолжительность: 00:45:54

Перевод: Не требуется
Cубтитры: нет
Оригинальная аудиодорожка: русский

Режиссер: Андрей Тарковский

В ролях:
Игорь Фомченко, Владимир Заманский, Наталья Архангельская...
Об актёрах подробней

Описание:
Импрессионистический рассказ о мальчике, скрипке и асфальтовом катке.
По лестнице большого дома крадучись пробирается семилетний Саша со скрипкой в руках. Но ватага ребят обнаруживает его. Взлетает в воздух футляр со скрипкой. Плохо пришлось бы музыканту, если бы не вступился за него рабочий - водитель катка Сергей. И когда Саша возвращается из музыкальной школы, на его долю выпадает неожиданное счастье - Сергей доверяет ему самостоятельно ппрокатиться на катке и даже берёт его с собой на обед.

Источник: Blu-ray 1080p
Качество видео: BDRip-AVC
Формат видео: MKV

Видео: 768x576 (4:3), 23,976 fps, H264 ~ 2075 kbps avg, 0.196 bit/pixel
Аудио: 48 kHz, Dolby Digital AC3 2.0, 192 kbps

Раздача от:
Общее
Полное имя : Katok.i.skripka.1960.BDRip-AVC_[New-team]_by_AVP_Studio.mkv
Формат : Matroska
Версия формата : Version 2
Размер файла : 745 Мбайт
Продолжительность : 45 м. 54 с.
Общий поток : 2269 Кбит/сек
Дата кодирования : UTC 2018-02-15 15:00:38
Программа кодирования : mkvmerge v6.1.0 ('Old Devil') built on Mar 4 2013 09:10:42
Библиотека кодирования : libebml v1.3.0 + libmatroska v1.4.0

Видео
Идентификатор : 1
Формат : AVC
Формат/Информация : Advanced Video Codec
Профиль формата : High@L4.1
Настройки формата : CABAC / 10 Ref Frames
Параметр CABAC формата : Да
Параметр RefFrames формата : 10 кадров
Идентификатор кодека : V_MPEG4/ISO/AVC
Продолжительность : 45 м. 54 с.
Битрейт : 2075 Кбит/сек
Ширина : 768 пикселей
Высота : 576 пикселей
Соотношение сторон : 4:3
Режим частоты кадров : Постоянный
Частота кадров : 23,976 (24000/1001) кадра/сек
Цветовое пространство : YUV
Субдискретизация насыщенности : 4:2:0
Битовая глубина : 8 бит
Тип развёртки : Прогрессивная
Бит/(Пиксели*Кадры) : 0.196
Размер потока : 667 Мбайт (90%)
Библиотека кодирования : x264 core 130 r2273 b3065e6
Настройки программы : cabac=1 / ref=10 / deblock=1:-3:-2 / analyse=0x3:0x113 / me=umh / subme=10 / psy=1 / psy_rd=1.00:0.00 / mixed_ref=1 / me_range=32 / chroma_me=1 / trellis=2 / 8x8dct=1 / cqm=0 / deadzone=21,11 / fast_pskip=1 / chroma_qp_offset=-2 / threads=6 / lookahead_threads=1 / sliced_threads=0 / nr=0 / decimate=0 / interlaced=0 / bluray_compat=0 / constrained_intra=0 / bframes=8 / b_pyramid=2 / b_adapt=2 / b_bias=0 / direct=3 / weightb=1 / open_gop=0 / weightp=2 / keyint=240 / keyint_min=24 / scenecut=40 / intra_refresh=0 / rc_lookahead=40 / rc=2pass / mbtree=1 / bitrate=2075 / ratetol=1.0 / qcomp=0.60 / qpmin=0 / qpmax=69 / qpstep=4 / cplxblur=20.0 / qblur=0.5 / ip_ratio=1.40 / aq=1:1.00
Default : Да
Forced : Нет

Аудио
Идентификатор : 2
Формат : AC-3
Формат/Информация : Audio Coding 3
Идентификатор кодека : A_AC3
Продолжительность : 45 м. 54 с.
Вид битрейта : Постоянный
Битрейт : 192 Кбит/сек
Каналы : 2 канала
Расположение каналов : Front: L R
Частота : 48,0 КГц
Частота кадров : 31,250 кадров/сек (1536 SPF)
Битовая глубина : 16 бит
Метод сжатия : С потерями
Размер потока : 63,0 Мбайт (8%)
Default : Да
Forced : Нет
pb.wtf



Скачать Каток и скрипка через торрент http://i100.fastpic.ru/big/2018/0216/d1/70b497fe9939646d33f301e7a539c5d1.png Скачать фильм Каток и скрипка через торрент бесплантно в хорошем качестве Описание:Импрессионистический рассказ о мальчике, скрипке и асфальтовом катке.По лестнице большого дома крадучись пробирается семилетний ... 5 10 1
Info! Золотая раздача, скачанное не засчитывается.
Торрент: Зарегистрирован [2018-02-16 09:05] · скачан: 15 раз
Статус: √ проверено
Размер: 745 MB
Как cкачать? Как скачать Каток и скрипка через торрент | qTorrent

% Раздел Тема Автор DL S | L
Кино СССР [ 1.09 GB ] Каток и скрипка [1960 СССР BDRip 720p от AVP Studio] AVP Studio Скачать
1 | 0
Кино СССР [ 742 MB ] Каток и скрипка [1960 СССР BDRip от AVP Studio] AVP Studio Скачать
1 | 0


>> Регистрируемся здесь <<






Отзывы и комментарии о схеме читаем и пишем здесь: ---> Отзывы и комментарии о схеме

Новые благодарочки в телеграм довольных пользователей:
скриншот   скриншот   скриншот   скриншот   скриншот
    Дорогой пользователь! Огромная просьба, поблагодарите релизера, оцените раздачу и оставьте свои комментарий, если Вы скачали Каток и скрипка через торрент бесплатно! Внесите свою лепту в развитие PiratBit!
    Комментировать посты могут только пользователи прошедшие не сложную регистрацию
    Показать сообщения:    

    Каток и скрипка через торрент
    Скачать бесплатно Каток и скрипка
    Каток и скрипка скачать торрент
    Каток и скрипка смотреть онлайн
    Cкачать фильм Каток и скрипка бесплатно
    Каток и скрипка скачать торрент в хорошем качестве
    Каток и скрипка смотреть онлайн бесплатно в хорошем качестве


    Вы не можете начинать темы
    Вы не можете отвечать на сообщения
    Вы не можете редактировать свои сообщения
    Вы не можете удалять свои сообщения
    Вы не можете голосовать в опросах
    Вы не можете прикреплять файлы к сообщениям
    Вы можете скачивать файлы