Всегда рабочее зеркало без VPN и Proxy просто перед .vidak.icu напиши любое слово или цифру, Пример http://7qr0.vidak.icu

Лицензия

MVO

1 сезон

1

1 сезон

iTunes

1 сезон

13

1 сезон

Deluxe

pack

Рекомендуем

Repack

30

ВАЖНО

RePack

MK11

RePack

jed

RePack

fifa19

RePack

RDR2

RePack

NEED FOR SPEED™ PAYBACK

Кинопоиск HD

6 сезон

 Острые козырьки 6 сезон

Все сериалы

все сериалы на PB.wtf

RePack

FAR CRY 5
  
Magnet ссылка

Deep Purple - With Orchestra (Live in Verona, 2CD) - 2014/ FLAC/ image +.cue/ lossless/ Hard Rock pb.wtf

Deep Purple - With Orchestra через торрент pb.wtf

Размер: 864 MB | Добавлен: 4 года 6 мес. назад | Торрент скачан:46 раз
Смотреть онлайн Deep Purple - With Orchestra | Скачать    Ребята, помогите собрать деньги на оплату серверов!!!

16-02-2018 14:08 Deep Purple - With Orchestra Скачать торрент  


Deep Purple - With Orchestra (Live in Verona, 2CD)


Год издания: 2014
Страна: UK
Жанр:
Продолжительность: 01:53:30
Лейбл издания: Ward
Страна-выпуска диска: Japan
Номер по каталогу: VQCD-10406-7
Формат: FLAC
Битрейт аудио: Lossless
Тип рипа: image +.cue
Наличие сканов в содержимом раздачи: да


01. Deep Purple Overture (1:29)
02. Highway Star (7:07)
03. Hard Lovin `Man (6:03)
04. Maybe I`m A Leo (4:35)
05. Strange Kind Of Woman (6:07)
06. Rapture Of The Deep (5:52)
07. Woman From Tokyo (6:11)
08. Contact Lost (2:31)
09. Guitar Outro / Solo (2:19)
10. When A Blind Man Cries (3:56)
11. The Well Dressed Guitar (2:54)

01. Knocking At Your Back Door (8:03)
02. Lazy (7:03)
03. No One Came (5:24)
04. Don Airey Keyboard Solo (6:07)
05. Perfect Strangers (6:11)
06. Space Truckin` (5:33)
07. Smoke On The Water (7:11)
08. Hush (7:21)
09. Bass Solo (2:24)
10. Black Night (9:08)

Код:

Exact Audio Copy V1.0 beta 4 from 7. December 2014

EAC extraction logfile from 26. December 2014, 0:40

Deep Purple / Live in Verona CD1 (VQCD-10406/7)

Used drive  : ATAPI   iHAS124   B   Adapter: 1  ID: 0

Read mode               : Secure
Utilize accurate stream : Yes
Defeat audio cache      : Yes
Make use of C2 pointers : No

Read offset correction                      : 6
Overread into Lead-In and Lead-Out          : No
Fill up missing offset samples with silence : Yes
Delete leading and trailing silent blocks   : No
Null samples used in CRC calculations       : Yes
Used interface                              : Installed external ASPI interface

Used output format              : User Defined Encoder
Selected bitrate                : 128 kBit/s
Quality                         : High
Add ID3 tag                     : Yes
Command line compressor         : C:\Program Files (x86)\Exact Audio Copy\Flac\flac.exe
Additional command line options : -V -8 -T "Date=%year%" -T "Genre=%genre%" %source%

TOC of the extracted CD

     Track |   Start  |  Length  | Start sector | End sector
    ---------------------------------------------------------
        1  |  0:00.00 |  1:29.14 |         0    |     6688
        2  |  1:29.14 |  7:06.54 |      6689    |    38692
        3  |  8:35.68 |  6:03.13 |     38693    |    65930
        4  | 14:39.06 |  4:35.02 |     65931    |    86557
        5  | 19:14.08 |  6:07.24 |     86558    |   114106
        6  | 25:21.32 |  5:52.05 |    114107    |   140511
        7  | 31:13.37 |  6:10.52 |    140512    |   168313
        8  | 37:24.14 |  2:30.57 |    168314    |   179620
        9  | 39:54.71 |  2:18.60 |    179621    |   190030
       10  | 42:13.56 |  3:56.35 |    190031    |   207765
       11  | 46:10.16 |  2:54.22 |    207766    |   220837

Range status and errors

Selected range

     Filename G:\CD\Deep Purple - Live in Verona CD1.wav

     Peak level 100.0 %
     Extraction speed 5.6 X
     Range quality 99.9 %
     Test CRC 99ED02AE
     Copy CRC 99ED02AE
     Copy OK

No errors occurred

AccurateRip summary

Track  1  not present in database
Track  2  not present in database
Track  3  not present in database
Track  4  not present in database
Track  5  not present in database
Track  6  not present in database
Track  7  not present in database
Track  8  not present in database
Track  9  not present in database
Track 10  not present in database
Track 11  not present in database

None of the tracks are present in the AccurateRip database

End of status report

Код:

Exact Audio Copy V1.0 beta 4 from 7. December 2014

EAC extraction logfile from 26. December 2014, 9:52

Deep Purple / Live in Verona CD2 (VQCD-10406/7)

Used drive  : ATAPI   iHAS124   B   Adapter: 1  ID: 0

Read mode               : Secure
Utilize accurate stream : Yes
Defeat audio cache      : Yes
Make use of C2 pointers : No

Read offset correction                      : 6
Overread into Lead-In and Lead-Out          : No
Fill up missing offset samples with silence : Yes
Delete leading and trailing silent blocks   : No
Null samples used in CRC calculations       : Yes
Used interface                              : Installed external ASPI interface

Used output format              : User Defined Encoder
Selected bitrate                : 128 kBit/s
Quality                         : High
Add ID3 tag                     : Yes
Command line compressor         : C:\Program Files (x86)\Exact Audio Copy\Flac\flac.exe
Additional command line options : -V -8 -T "Date=%year%" -T "Genre=%genre%" %source%

TOC of the extracted CD

     Track |   Start  |  Length  | Start sector | End sector
    ---------------------------------------------------------
        1  |  0:00.00 |  8:02.41 |         0    |    36190
        2  |  8:02.41 |  7:03.19 |     36191    |    67934
        3  | 15:05.60 |  5:24.09 |     67935    |    92243
        4  | 20:29.69 |  6:06.58 |     92244    |   119751
        5  | 26:36.52 |  6:10.41 |    119752    |   147542
        6  | 32:47.18 |  5:33.24 |    147543    |   172541
        7  | 38:20.42 |  7:11.35 |    172542    |   204901
        8  | 45:32.02 |  7:21.37 |    204902    |   238013
        9  | 52:53.39 |  2:24.17 |    238014    |   248830
       10  | 55:17.56 |  9:07.72 |    248831    |   289927

Range status and errors

Selected range

     Filename G:\CD\Deep Purple - Live in Verona CD2.wav

     Peak level 100.0 %
     Extraction speed 6.1 X
     Range quality 100.0 %
     Test CRC 1E681998
     Copy CRC 1E681998
     Copy OK

No errors occurred

AccurateRip summary

Track  1  not present in database
Track  2  not present in database
Track  3  not present in database
Track  4  not present in database
Track  5  not present in database
Track  6  not present in database
Track  7  not present in database
Track  8  not present in database
Track  9  not present in database
Track 10  not present in database

None of the tracks are present in the AccurateRip database

End of status report

Код:

REM GENRE "Hard Rock"
REM DATE 2014
REM DISCID 9A0B800B
REM COMMENT "ExactAudioCopy v1.0b4"
PERFORMER "Deep Purple"
TITLE "Live in Verona CD1 (2014, VQCD-10406/7)"
FILE "Deep Purple - Live in Verona CD1.flac" WAVE
  TRACK 01 AUDIO
    TITLE "Deep Purple Overture"
    PERFORMER "Deep Purple"
    ISRC GBCBR1400217
    INDEX 01 00:00:00
  TRACK 02 AUDIO
    TITLE "Highway Star"
    PERFORMER "Deep Purple"
    ISRC GBCBR1400218
    INDEX 01 01:29:14
  TRACK 03 AUDIO
    TITLE "Hard Lovin `Man"
    PERFORMER "Deep Purple"
    ISRC GBCBR1400219
    INDEX 01 08:35:68
  TRACK 04 AUDIO
    TITLE "Maybe I`m A Leo"
    PERFORMER "Deep Purple"
    ISRC GBCBR1400220
    INDEX 01 14:39:06
  TRACK 05 AUDIO
    TITLE "Strange Kind Of Woman"
    PERFORMER "Deep Purple"
    ISRC GBCBR1400221
    INDEX 01 19:14:08
  TRACK 06 AUDIO
    TITLE "Rapture Of The Deep"
    PERFORMER "Deep Purple"
    ISRC GBCBR1400222
    INDEX 01 25:21:32
  TRACK 07 AUDIO
    TITLE "Woman From Tokyo"
    PERFORMER "Deep Purple"
    ISRC GBCBR1400223
    INDEX 01 31:13:37
  TRACK 08 AUDIO
    TITLE "Contact Lost"
    PERFORMER "Deep Purple"
    ISRC GBCBR1400224
    INDEX 01 37:24:14
  TRACK 09 AUDIO
    TITLE "Guitar Outro / Solo"
    PERFORMER "Deep Purple"
    INDEX 01 39:54:71
  TRACK 10 AUDIO
    TITLE "When A Blind Man Cries"
    PERFORMER "Deep Purple"
    ISRC GBCBR1400225
    INDEX 01 42:13:56
  TRACK 11 AUDIO
    TITLE "The Well Dressed Guitar"
    PERFORMER "Deep Purple"
    ISRC GBCBR1400226
    INDEX 01 46:10:16

Код:

REM GENRE "Hard Rock"
REM DATE 2014
REM DISCID 900F190A
REM COMMENT "ExactAudioCopy v1.0b4"
PERFORMER "Deep Purple"
TITLE "Live in Verona CD2 (2014, VQCD-10406/7)"
FILE "Deep Purple - Live in Verona CD2.flac" WAVE
  TRACK 01 AUDIO
    TITLE "Knocking At Your Back Door"
    PERFORMER "Deep Purple"
    ISRC GBCBR1400227
    INDEX 01 00:00:00
  TRACK 02 AUDIO
    TITLE "Lazy"
    PERFORMER "Deep Purple"
    ISRC GBCBR1400228
    INDEX 01 08:02:41
  TRACK 03 AUDIO
    TITLE "No One Came"
    PERFORMER "Deep Purple"
    ISRC GBCBR1400229
    INDEX 01 15:05:60
  TRACK 04 AUDIO
    TITLE "Don Airey Keyboard Solo"
    PERFORMER "Deep Purple"
    ISRC GBCBR1400230
    INDEX 01 20:29:69
  TRACK 05 AUDIO
    TITLE "Perfect Strangers"
    PERFORMER "Deep Purple"
    ISRC GBCBR1400231
    INDEX 01 26:36:52
  TRACK 06 AUDIO
    TITLE "Space Truckin`"
    PERFORMER "Deep Purple"
    ISRC GBCBR1400232
    INDEX 01 32:47:18
  TRACK 07 AUDIO
    TITLE "Smoke On The Water"
    PERFORMER "Deep Purple"
    ISRC GBCBR1400233
    INDEX 01 38:20:42
  TRACK 08 AUDIO
    TITLE "Hush"
    PERFORMER "Deep Purple"
    ISRC GBCBR1400234
    INDEX 01 45:32:02
  TRACK 09 AUDIO
    TITLE "Bass Solo"
    PERFORMER "Deep Purple"
    INDEX 01 52:53:39
  TRACK 10 AUDIO
    TITLE "Black Night"
    PERFORMER "Deep Purple"
    ISRC GBCBR1400235
    INDEX 01 55:17:56

Jan Gillan - Vocals
Jan Paice - Drums
Roger Glover - Bass Guitar
Steve Morse - Guitar
Don Airey - Keyboards


pb.wtf



Скачать Deep Purple - With Orchestra через торрент http://i102.fastpic.ru/big/2018/0216/29/b8d122e4290d71ff7129e6f115677c29.png Скачать, смотреть онлайн Deep Purple - With Orchestra бесплантно в хорошем качестве ... 10 10 1
Торрент: Зарегистрирован [2018-02-16 14:08] · скачан: 46 раз
Статус: √ проверено
Размер: 864 MB
Как cкачать? Как скачать Deep Purple - With Orchestra через торрент | UTorrent

28-11-2019 20:33  

Отключить вcю реклaмy на сайте

    Дорогой пользователь! Огромная просьба, поблагодарите релизера, оцените раздачу и оставьте свои комментарий, если Вы скачали Deep Purple - With Orchestra через торрент бесплатно!
    Комментировать посты могут только пользователи прошедшие не сложную регистрацию
    Показать сообщения:    

    Deep Purple - With Orchestra через торрент
    Скачать бесплатно Deep Purple - With Orchestra
    Deep Purple - With Orchestra скачать торрент
    Deep Purple - With Orchestra смотреть онлайн
    Cкачать фильм Deep Purple - With Orchestra бесплатно
    Deep Purple - With Orchestra скачать торрент в хорошем качестве
    Deep Purple - With Orchestra смотреть онлайн бесплатно в хорошем качестве


    Вы не можете начинать темы
    Вы не можете отвечать на сообщения
    Вы не можете редактировать свои сообщения
    Вы не можете удалять свои сообщения
    Вы не можете голосовать в опросах
    Вы не можете прикреплять файлы к сообщениям
    Вы можете скачивать файлы