Ссылка на приватное зеркало нашего сайта всего за 1$. Внимание количество ограничено!!!

2 сезон

iTunes

1 сезон

1

2 сезон

2 сезон

iTunes

1 сезон

RePack

30

Ultimate

ВАЖНО

ИГРА 18+

pack

RePack

MK11
pack

Забери бонус

RePack

jed

!!Акция!!

Alien_Rage

RePack

fifa19

RePack

Assassins Creed: Odyssey

RePack

NEED FOR SPEED™ PAYBACK

4 сезон

9 сезон

Бесстыжие 9 сезон

Все сериалы

все сериалы на PB.wtf

RePack

FAR CRY 5
  

Old Season - Beyond The Black - 2017/ FLAC/ image +.cue/ lossless/ Heavy Metal pb.wtf

Old Season - Beyond The Black - 2017 через торрент pb.wtf

Размер: 519 MB | Добавлен: 2 года 9 мес. назад | Торрент скачан:16 раз
Скачать  

16-02-2018 14:21 Old Season - Beyond The Black - 2017 Скачать торрент  


Old Season - Beyond The Black


Год издания: 2017
Страна: Ireland (Athy, Kildare)
Жанр: Heavy Metal
Продолжительность: 01:02:11
Лейбл издания: Pure Steel Records
Страна-выпуска диска: Germany
Номер по каталогу: PSRCD 138
Формат: FLAC
Битрейт аудио: Lossless
Тип рипа: image +.cue
Наличие сканов в содержимом раздачи: да


01. A New Dawn (6:30)
02. Scavenger (4:41)
03. Chosen (5:56)
04. Elegy (7:40)
05. The Journeymen (8:37)
06. Rivers Of Cepha (6:25)
07. Words From Beyond... (6:55)
08. The Void (6:25)
09. Nevermore (9:02)

Код:

Exact Audio Copy V1.3 from 2. September 2016

EAC extraction logfile from 27. May 2017, 11:35

Old Season / Beyond The Black

Used drive  : MATSHITADVD-RAM UJ8G6   Adapter: 1  ID: 0

Read mode               : Secure
Utilize accurate stream : Yes
Defeat audio cache      : Yes
Make use of C2 pointers : No

Read offset correction                      : 103
Overread into Lead-In and Lead-Out          : No
Fill up missing offset samples with silence : Yes
Delete leading and trailing silent blocks   : No
Null samples used in CRC calculations       : Yes
Used interface                              : Native Win32 interface for Win NT & 2000

Used output format              : User Defined Encoder
Selected bitrate                : 1024 kBit/s
Quality                         : High
Add ID3 tag                     : No
Command line compressor         : C:\Program Files (x86)\Exact Audio Copy\FLAC\FLAC.EXE
Additional command line options : -V -8 -T "Date=%year%" -T"Genre=%genre%" -T"COMMENT=Ripped by Ilijan - ilko" -8 -V %source%

TOC of the extracted CD

     Track |   Start  |  Length  | Start sector | End sector
    ---------------------------------------------------------
        1  |  0:00.00 |  6:30.11 |         0    |    29260
        2  |  6:30.11 |  4:41.27 |     29261    |    50362
        3  | 11:11.38 |  5:55.54 |     50363    |    77041
        4  | 17:07.17 |  7:39.40 |     77042    |   111506
        5  | 24:46.57 |  8:36.44 |    111507    |   150250
        6  | 33:23.26 |  6:25.16 |    150251    |   179141
        7  | 39:48.42 |  6:55.33 |    179142    |   210299
        8  | 46:44.00 |  6:24.56 |    210300    |   239155
        9  | 53:08.56 |  9:02.12 |    239156    |   279817

Range status and errors

Selected range

     Filename D:\ilko\Old Season - Beyond The Black.wav

     Peak level 94.7 %
     Extraction speed 4.1 X
     Range quality 100.0 %
     Test CRC 23F6CA53
     Copy CRC 23F6CA53
     Copy OK

No errors occurred

AccurateRip summary

Track  1  not present in database
Track  2  not present in database
Track  3  not present in database
Track  4  not present in database
Track  5  not present in database
Track  6  not present in database
Track  7  not present in database
Track  8  not present in database
Track  9  not present in database

None of the tracks are present in the AccurateRip database

End of status report

Код:

REM GENRE "Melodic Metal"
REM DATE 2017
REM DISCID 730E9209
REM COMMENT "ExactAudioCopy v1.3"
PERFORMER "Old Season"
TITLE "Beyond The Black"
FILE "Old Season - Beyond The Black.flac" WAVE
  TRACK 01 AUDIO
    TITLE "A New Dawn"
    PERFORMER "Old Season"
    INDEX 01 00:00:00
  TRACK 02 AUDIO
    TITLE "Scavenger"
    PERFORMER "Old Season"
    INDEX 01 06:30:11
  TRACK 03 AUDIO
    TITLE "Chosen"
    PERFORMER "Old Season"
    INDEX 01 11:11:38
  TRACK 04 AUDIO
    TITLE "Elegy"
    PERFORMER "Old Season"
    INDEX 01 17:07:17
  TRACK 05 AUDIO
    TITLE "The Journeymen"
    PERFORMER "Old Season"
    INDEX 01 24:46:57
  TRACK 06 AUDIO
    TITLE "Rivers Of Cepha"
    PERFORMER "Old Season"
    INDEX 01 33:23:26
  TRACK 07 AUDIO
    TITLE "Words From Beyond..."
    PERFORMER "Old Season"
    INDEX 01 39:48:42
  TRACK 08 AUDIO
    TITLE "The Void"
    PERFORMER "Old Season"
    INDEX 01 46:44:00
  TRACK 09 AUDIO
    TITLE "Nevermore"
    PERFORMER "Old Season"
    INDEX 01 53:08:56




pb.wtf



Скачать Old Season - Beyond The Black - 2017 через торрент http://i101.fastpic.ru/big/2018/0216/c8/269d688753e7b0b99d2e9da0f0d7d9c8.png Скачать фильм Old Season - Beyond The Black - 2017через торрент бесплантно в хорошем качестве Трэклист A New Dawn (6:30) Scavenger (4:41) Chosen (5:56) Elegy (7:40) The Journeymen (8:37) Rivers ... 5 10 1
Торрент: Зарегистрирован [2018-02-16 14:21] · скачан: 16 раз
Статус: √ проверено
Размер: 519 MB
Как cкачать? Как скачать Old Season - Beyond The Black - 2017 через торрент | qTorrent

28-11-2019 20:33  

Отключить всю рекламу на сайте

    Дорогой пользователь! Огромная просьба, поблагодарите релизера, оцените раздачу и оставьте свои комментарий, если Вы скачали Old Season - Beyond The Black - 2017 через торрент бесплатно! Внесите свою лепту в развитие PiratBit!
    Комментировать посты могут только пользователи прошедшие не сложную регистрацию
    Показать сообщения:    

    Old Season - Beyond The Black - 2017 через торрент
    Скачать бесплатно Old Season - Beyond The Black - 2017
    Old Season - Beyond The Black - 2017 скачать торрент
    Old Season - Beyond The Black - 2017 смотреть онлайн
    Cкачать фильм Old Season - Beyond The Black - 2017 бесплатно
    Old Season - Beyond The Black - 2017 скачать торрент в хорошем качестве
    Old Season - Beyond The Black - 2017 смотреть онлайн бесплатно в хорошем качестве


    Вы не можете начинать темы
    Вы не можете отвечать на сообщения
    Вы не можете редактировать свои сообщения
    Вы не можете удалять свои сообщения
    Вы не можете голосовать в опросах
    Вы не можете прикреплять файлы к сообщениям
    Вы можете скачивать файлы