Ссылка на приватное зеркало нашего сайта всего за 1$. Внимание количество ограничено!!!

2 сезон

iTunes

1 сезон

1

2 сезон

2 сезон

iTunes

1 сезон

RePack

30

Новинка

ВАЖНО

ИГРА 18+

pack

RePack

MK11
pack

Забери бонус

RePack

jed

!!Акция!!

Alien_Rage

RePack

fifa19

RePack

Assassins Creed: Odyssey

RePack

NEED FOR SPEED™ PAYBACK

4 сезон

9 сезон

Бесстыжие 9 сезон

Все сериалы

все сериалы на PB.wtf

RePack

FAR CRY 5
  

Secret Rule - Machination - 2016/ FLAC/ image +.cue/ lossless/ Symphonic Heavy Metal pb.wtf

Secret Rule - Machination - 2016 через торрент pb.wtf

Размер: 388 MB | Добавлен: 2 года 9 мес. назад | Торрент скачан:7 раз
Скачать  

16-02-2018 14:24 Secret Rule - Machination - 2016 Скачать торрент  


Secret Rule - Machination


Год издания: 2016
Страна: Italy
Жанр: Symphonic Heavy Metal
Продолжительность: 00:46:58
Лейбл издания: Scarlet Records
Страна-выпуска диска: Poland
Номер по каталогу: SC 299-0
Формат: FLAC
Битрейт аудио: Lossless
Тип рипа: image +.cue
Наличие сканов в содержимом раздачи: да


01. Ex-Machina (4:40)
02. The Saviour (3:47)
03. I Have the Sun (4:22)
04. Dolls (4:13)
05. I Will (3:54)
06. The Image (6:00)
07. You're the Player (3:28)
08. Your Trap (3:38)
09. Foolish Daisy (4:16)
10. Short Stories (3:54)
11. A Mother (4:47)

Код:

Exact Audio Copy V1.3 from 2. September 2016

Отчёт EAC об извлечении, выполненном 31. декабря 2016, 13:25

Secret Rule / Machination

Дисковод: PIONEER DVD-RW  DVR-118L   Adapter: 1  ID: 0

Режим чтения                 : Достоверность
Использование точного потока : Да
Отключение кэша аудио        : Да
Использование указателей C2  : Нет

Коррекция смещения при чтении                     : 6
Способность читать области Lead-in и Lead-out     : Нет
Заполнение пропущенных сэмплов тишиной            : Да
Удаление блоков с тишиной в начале и конце        : Нет
При вычислениях CRC использовались нулевые сэмплы : Да
Интерфейс                                         : Встроенный Win32-интерфейс для Win NT/2000

Выходной формат          : Пользовательский кодировщик
Выбранный битрейт        : 1024 kBit/s
Качество                 : Высокий
Добавление ID3-тега      : Нет
Утилита сжатия           : C:\Program Files (x86)\Exact Audio Copy_1_3\Flac\flac.exe
Дополнительные параметры : -V -8  -T "COMMENT=Ripped by niko_2" -T "Date=%year%" -T "Genre=%genre%" %source%

TOC извлечённого CD

     Трек |   Старт  | Длительность | Начальный сектор | Конечный сектор
    ---------------------------------------------------------------------
       1  |  0:00.00 |    4:39.70   |           0      |      20994
       2  |  4:39.70 |    3:46.39   |       20995      |      37983
       3  |  8:26.34 |    4:22.02   |       37984      |      57635
       4  | 12:48.36 |    4:12.54   |       57636      |      76589
       5  | 17:01.15 |    3:53.41   |       76590      |      94105
       6  | 20:54.56 |    6:00.30   |       94106      |     121135
       7  | 26:55.11 |    3:28.32   |      121136      |     136767
       8  | 30:23.43 |    3:37.66   |      136768      |     153108
       9  | 34:01.34 |    4:16.03   |      153109      |     172311
      10  | 38:17.37 |    3:53.49   |      172312      |     189835
      11  | 42:11.11 |    4:46.52   |      189836      |     211337

Характеристики диапазона извлечения и сообщения об ошибках

Выбранный диапазон

     Имя файла J:\FLAC\_Sound Forge Audio Studio_temp\Secret Rule - Machination (2016)\Secret Rule - Machination.wav

     Пиковый уровень 100.0 %
     Скорость извлечения 1.9 X
     Качество диапазона 100.0 %
     CRC копии 35EA4EEC
     Копирование... OK

Ошибок не произошло

Конец отчёта

Код:

REM GENRE "Symphonic Rock"
REM DATE 2016
REM DISCID 870B010B
REM COMMENT "ExactAudioCopy v1.3"
PERFORMER "Secret Rule"
TITLE "Machination"
REM COMPOSER ""
FILE "Secret Rule - Machination.flac" WAVE
  TRACK 01 AUDIO
    TITLE "Ex-Machina"
    PERFORMER "Secret Rule"
    REM COMPOSER ""
    INDEX 01 00:00:00
  TRACK 02 AUDIO
    TITLE "The Saviour"
    PERFORMER "Secret Rule"
    REM COMPOSER ""
    INDEX 01 04:39:70
  TRACK 03 AUDIO
    TITLE "I Have the Sun"
    PERFORMER "Secret Rule"
    REM COMPOSER ""
    INDEX 01 08:26:34
  TRACK 04 AUDIO
    TITLE "Dolls"
    PERFORMER "Secret Rule"
    REM COMPOSER ""
    INDEX 01 12:48:36
  TRACK 05 AUDIO
    TITLE "I Will"
    PERFORMER "Secret Rule"
    REM COMPOSER ""
    INDEX 01 17:01:15
  TRACK 06 AUDIO
    TITLE "The Image"
    PERFORMER "Secret Rule"
    REM COMPOSER ""
    INDEX 01 20:54:56
  TRACK 07 AUDIO
    TITLE "You're the Player"
    PERFORMER "Secret Rule"
    REM COMPOSER ""
    INDEX 01 26:55:11
  TRACK 08 AUDIO
    TITLE "Your Trap"
    PERFORMER "Secret Rule"
    REM COMPOSER ""
    INDEX 01 30:23:43
  TRACK 09 AUDIO
    TITLE "Foolish Daisy"
    PERFORMER "Secret Rule"
    REM COMPOSER ""
    INDEX 01 34:01:34
  TRACK 10 AUDIO
    TITLE "Short Stories"
    PERFORMER "Secret Rule"
    REM COMPOSER ""
    INDEX 01 38:17:37
  TRACK 11 AUDIO
    TITLE "A Mother"
    PERFORMER "Secret Rule"
    REM COMPOSER ""
    INDEX 01 42:11:11


Angela Di Vincenzo - Vocal
Henrik Klingenberg - Keys (Sonata Arctica)
Andy Menario - Guitar
Michele Raspanti - Bass
Sander Zoer - Drums (ex-Delain, Leah)




pb.wtf



Скачать Secret Rule - Machination - 2016 через торрент http://i99.fastpic.ru/big/2018/0216/ae/68dcd87cb6d28c6cb6b9017d78a906ae.png Скачать фильм Secret Rule - Machination - 2016через торрент бесплантно в хорошем качестве Трэклист Ex-Machina (4:40) The Saviour (3:47) I Have the Sun (4:22) Dolls (4:13) I Will (3:54) The ... 5 10 1
Торрент: Зарегистрирован [2018-02-16 14:24] · скачан: 7 раз
Статус: √ проверено
Размер: 388 MB
Как cкачать? Как скачать Secret Rule - Machination - 2016 через торрент | qTorrent

28-11-2019 20:33  

Отключить всю рекламу на сайте

    Дорогой пользователь! Огромная просьба, поблагодарите релизера, оцените раздачу и оставьте свои комментарий, если Вы скачали Secret Rule - Machination - 2016 через торрент бесплатно! Внесите свою лепту в развитие PiratBit!
    Комментировать посты могут только пользователи прошедшие не сложную регистрацию
    Показать сообщения:    

    Secret Rule - Machination - 2016 через торрент
    Скачать бесплатно Secret Rule - Machination - 2016
    Secret Rule - Machination - 2016 скачать торрент
    Secret Rule - Machination - 2016 смотреть онлайн
    Cкачать фильм Secret Rule - Machination - 2016 бесплатно
    Secret Rule - Machination - 2016 скачать торрент в хорошем качестве
    Secret Rule - Machination - 2016 смотреть онлайн бесплатно в хорошем качестве


    Вы не можете начинать темы
    Вы не можете отвечать на сообщения
    Вы не можете редактировать свои сообщения
    Вы не можете удалять свои сообщения
    Вы не можете голосовать в опросах
    Вы не можете прикреплять файлы к сообщениям
    Вы можете скачивать файлы