Ссылка на приватное зеркало нашего сайта всего за 1$. Внимание количество ограничено!!!

2 сезон

iTunes

1 сезон

1

iTunes

iTunes

iTunes

1 сезон

RePack

30

ИГРА 18+

pack

ВАЖНО

!!Акция!!

Alien_RageХит недели

RePack

MK11
pack

Забери бонус

RePack

jed

!!Акция!!

Alien_Rage

RePack

fifa19

RePack

Assassins Creed: Odyssey

RePack

NEED FOR SPEED™ PAYBACK

4 сезон

9 сезон

Бесстыжие 9 сезон

Все сериалы

все сериалы на PB.wtf

RePack

FAR CRY 5
  

Лабиринты / Сезон 1 / Серии 1-16 из 16 (Юрий Владовский) [2018, мелодрама, WEB-DLRip] pb.wtf

Лабиринты через торрент pb.wtf

Размер: 9.03 GB | Добавлен: 2 года 8 мес. назад | Торрент скачан:96 раз
Скачать  

17-02-2018 00:34 Лабиринты Скачать торрент  

ЛабиринтыГод выпуска: 2018
Страна: Россия
Жанр: мелодрама
Продолжительность: 16 x ~ 00:50:00
Перевод: Не требуется
Субтитры: отсутствуют

Режиссер: Юрий Владовский



В ролях:

Дмитрий Пчела, Елена Вожакина, Татьяна Лютаева, Роман Полянский, Полина Филоненко, Сергей Паршин, Артур Литвинов, Стефан Отто, Ник Тихонов, Антон Багмет, Елена Крайняя, Андрей Курносов, Алина Кикеля, Анастасия Ступина, Надежда Азоркина

Описание:

У Марины (Елена Вожакина) в жизни все хорошо. Успешная карьера в крупной компании, любящий муж Сергей и родители (Татьяна Лютаева и Сергей Паршин). Омрачает счастье героини только одно – она уже десять лет замужем, но никак не может забеременеть, не помогает даже ЭКО. Медицинских причин для этого нет, врачи лишь разводят руками. Марина же все больше винит себя. Она уверена, что причина ее бесплодия – давний аборт, который она сделала еще в молодости.Марина решается на усыновление, но муж отказывается воспитывать чужого ребенка, с чужими генами. Героиня не подозревает, в чем истинная причина такой категоричности супруга.В один прекрасный день Марина знакомится с маленьким мальчиком Сережей (Стефан Отто), внуком уборщицы в компании. Бабушке приходится одной поднимать и нерадивую дочь Альбину (Полина Филоненко), и внука. Альбина – безработная и незамужняя девушка, сын для нее обуза. Марина начинает помогать мальчику и постепенно в ней зреет неосуществимая надежда, что она сможет усыновить Сережу. Тем временем выясняется, что у мужа Марины есть тайная семья и в ней растет ребенок…

Качество: WEB-DLRip
Формат: AVI

Видео: XviD, ~ 1500 Кбит/с, 720x400
Аудио: AC3, 2 ch, 192 Кбит/с
скриншот   скриншот   скриншот  

Общее
Полное имя : D:\Лабиринты.2017.WEB-DLRip.Files-x\01.Лабиринты.2017.WEB-DLRip.Files-x.avi
Формат : AVI
Формат/Информация : Audio Video Interleave
Размер файла : 549 Мбайт
Продолжительность : 45 м. 36 с.
Общий поток : 1682 Кбит/сек
Программа кодирования : VirtualDubMod 1.5.10.3 | www.virtualdub-fr.org || (build 2550/release)
Библиотека кодирования : VirtualDubMod build 2550/release

Видео
Идентификатор : 0
Формат : MPEG-4 Visual
Профиль формата : Advanced Simple@L5
Параметр BVOP формата : 1
Параметр QPel формата : Нет
Параметр GMC формата : Без точки перехода
Параметр матрицы формата : Выборочная
Идентификатор кодека : XVID
Идентификатор кодека/Подсказка : XviD
Продолжительность : 45 м. 36 с.
Битрейт : 1480 Кбит/сек
Ширина : 720 пикселей
Высота : 400 пикселей
Соотношение сторон : 16:9
Частота кадров : 25,000 кадров/сек
Цветовое пространство : YUV
Субдискретизация насыщенности : 4:2:0
Битовая глубина : 8 бит
Тип развёртки : Прогрессивная
Метод сжатия : С потерями
Бит/(Пиксели*Кадры) : 0.206
Размер потока : 483 Мбайт (88%)
Библиотека кодирования : XviD 73

Аудио
Идентификатор : 1
Формат : AC-3
Формат/Информация : Audio Coding 3
Расширение режима : CM (complete main)
Параметр Endianness формата : Big
Идентификатор кодека : 2000
Продолжительность : 45 м. 36 с.
Вид битрейта : Постоянный
Битрейт : 192 Кбит/сек
Каналы : 2 канала
Расположение каналов : Front: L R
Частота : 48,0 КГц
Частота кадров : 31,250 кадров/сек (1536 spf)
Метод сжатия : С потерями
Размер потока : 62,6 Мбайт (11%)
Выравнивание : Разделение по промежуткам
Продолжительность промежутка : 40 мс. (1,00 видеокадр)
Время предзагрузки промежутка : 500 мс.

pb.wtf



Скачать Лабиринты через торрент http://i101.fastpic.ru/big/2018/0212/97/8201a63040801c00ef356da310bf6697.jpg Скачать фильм Лабиринты через торрент бесплантно в хорошем качестве Описание: У Марины (Елена Вожакина) в жизни все хорошо. Успешная карьера в крупной компании, любящий муж Сергей и родители (Татьяна Лютаева ... 9.3 10 7
Торрент: Зарегистрирован [2018-02-17 00:34] · скачан: 96 раз
Статус: √ проверено
Размер: 9.03 GB
Как cкачать? Как скачать Лабиринты через торрент | qTorrent

% Раздел Тема Автор DL S | L
Наши сериалы [ 28.83 GB ] Лабиринты / Сезон 1 / Серии 1-16 из 16 [2018 WEB-DL 1080p] bober100 Скачать
1 | 0
Наши сериалы [ 20.42 GB ] Лабиринты / Сезон 1 / Серии 1-16 из 16 [2018 WEB-DL 720p] bober100 Скачать
1 | 0
Наши сериалы [ 9.4 GB ] Лабиринты / Сезон 1 / Серии 1-16 из 16 [2018 SATRip] bober100 Скачать
1 | 0

28-11-2019 20:33  

Отключить всю рекламу на сайте

    Дорогой пользователь! Огромная просьба, поблагодарите релизера, оцените раздачу и оставьте свои комментарий, если Вы скачали Лабиринты через торрент бесплатно! Внесите свою лепту в развитие PiratBit!
    Комментировать посты могут только пользователи прошедшие не сложную регистрацию
    Показать сообщения:    

    Лабиринты через торрент
    Скачать бесплатно Лабиринты
    Лабиринты скачать торрент
    Лабиринты смотреть онлайн
    Cкачать фильм Лабиринты бесплатно
    Лабиринты скачать торрент в хорошем качестве
    Лабиринты смотреть онлайн бесплатно в хорошем качестве


    Вы не можете начинать темы
    Вы не можете отвечать на сообщения
    Вы не можете редактировать свои сообщения
    Вы не можете удалять свои сообщения
    Вы не можете голосовать в опросах
    Вы не можете прикреплять файлы к сообщениям
    Вы можете скачивать файлы