Ссылка на приватное зеркало всего за 1$. Внимание количество ограничено!!!

OK

1+1

iTunes

мы

OK

1

WEB-DLRip

Джокер

Пифагор

Ведьмак / The Witcher сериал

iTunes

ПШазам

ОК

Оно 2

iTunes

30
pack

Вам бонус

ВАЖНО

!!Акция!!

Alien_RageХит недели

RePack

Resident Evil 21

ИГРА 18+

pack

RePack

jed

RePack

fifa19

RePack

Assassins Creed: Odyssey

RePack

NEED FOR SPEED™ PAYBACK

4 сезон

9 сезон

Бесстыжие 9 сезон

Все сериалы

все сериалы на PB.wtf

RePack

FAR CRY 5
  

Невидимый / The Unseen (Гари Синьор) [2017, триллер, драма, детектив, WEB-DL 720p] MVO [КОЛОБОК] pb.wtf

Невидимый через торрент pb.wtf

Размер: 3.63 GB | Добавлен: 1 год 11 мес. назад | Торрент скачан:34 раза
Скачать  

17-02-2018 02:11 Невидимый Скачать торрент  

Невидимый / The UnseenГод выпуска: 2017
Страна: Великобритания
Жанр: триллер, драма, детектив
Продолжительность: 01:48:39
Перевод: Любительский (многоголосый) [КОЛОБОК]
Субтитры: английские

Режиссер: Гари Синьор

rating

В ролях:

Ричард Флуд, Саймон Коттон, Жасмин Хайд, Сушил Чудасама, Дана Хаквджу

Описание:

После смерти своего сына Джемма и Уилл впадают в уныние. Джемма винит во всём себя и у неё появляются панические атаки, после которых она теряет зрение. Уилл же начинает слышать голос своего сына, который зовёт его. Для того чтобы перебороть их горе они решают отдохнуть в домике своего друга Пола, по совету которого Джемма начинает принимать лекарства. Уилл, лишившись возможности слышать голос своего сына, решает вернуться обратно домой. На передний план в фильме выходят чувства и сложные перипетии человеческих отношений, когда Джемме, Уиллу и Полу приходится иметь дело с жестокостью и насилием, не только физическим, но и психологическим.

Качество: WEB-DL 720p
Формат: MKV

Видео: h.264, 4 393 kb/s, 1280x720
Аудио#1: AC3, 2 ch, 384 Кбит/с

скриншот  скриншот  скриншот  

Общее
Уникальный идентификатор : 191114827114197845276435093335298436291 (0x8FC760784BA027F0BF40EC02918A6CC3)
Полное имя : D:\The.Unseen.2017.P.WEB-DL.72Op.mkv
Формат : Matroska
Версия формата : Version 2
Размер файла : 3,63 Гбайт
Продолжительность : 1 ч. 48 м.
Режим общего битрейта : Переменный
Общий поток : 4779 Кбит/сек
Дата кодирования : UTC 2018-02-16 17:21:50
Программа кодирования : mkvmerge v8.3.0 ('Over the Horizon') 64bit
Библиотека кодирования : libebml v1.3.1 + libmatroska v1.4.2

Видео
Идентификатор : 1
Формат : AVC
Формат/Информация : Advanced Video Codec
Профиль формата : High@L4.1
Параметр CABAC формата : Да
Параметр ReFrames формата : 4 кадра
Идентификатор кодека : V_MPEG4/ISO/AVC
Продолжительность : 1 ч. 48 м.
Вид битрейта : Переменный
Битрейт : 4393 Кбит/сек
Максимальный битрейт : 5000 Кбит/сек
Ширина : 1280 пикселей
Высота : 720 пикселей
Соотношение сторон : 16:9
Режим частоты кадров : Постоянный
Частота кадров : 23,976 (24000/1001) кадра/сек
Стандарт вещания : Component
Цветовое пространство : YUV
Субдискретизация насыщенности : 4:2:0
Битовая глубина : 8 бит
Тип развёртки : Прогрессивная
Бит/(Пиксели*Кадры) : 0.195
Размер потока : 3,26 Гбайт (90%)
Default : Да
Forced : Нет
Цветовой диапазон : Limited
Основные цвета : BT.709
Характеристики трансфера : BT.709
Коэффициенты матрицы : BT.709

Аудио
Идентификатор : 2
Формат : AC-3
Формат/Информация : Audio Coding 3
Расширение режима : CM (complete main)
Параметр Endianness формата : Big
Идентификатор кодека : A_AC3
Продолжительность : 1 ч. 48 м.
Вид битрейта : Постоянный
Битрейт : 384 Кбит/сек
Каналы : 2 канала
Расположение каналов : Front: L R
Частота : 48,0 КГц
Частота кадров : 31,250 кадров/сек (1536 spf)
Метод сжатия : С потерями
Размер потока : 298 Мбайт (8%)
Default : Да
Forced : Нет

pb.wtf



Скачать Невидимый через торрент http://img12.lostpic.net/2018/02/17/76fac4f3699dfc46ab8e0da2b1e9c729.jpg Скачать фильм Невидимый через торрент бесплантно в хорошем качестве Описание: После смерти своего сына Джемма и Уилл впадают в уныние. Джемма винит во всём себя и у неё появляются панические атаки, после ... 9 10 5
Торрент: Зарегистрирован [2018-02-17 02:11] · скачан: 34 раз
Статус: T временная
Размер: 3.63 GB
Как cкачать? Как скачать Невидимый через торрент | qTorrent

% Раздел Тема Автор DL S | L
T Фильмы (мультфильмы) cо спонсором показа (Новинки AVI/MKV) [ 1.46 GB ] Невидимый / The Unseen [2017 WEB-DLRip] MVO [КОЛОБОК] bober100 Скачать
1 | 0
Документальные фильмы и телепередачи [ 701 MB ] Тайны невидимого мира / Mysteries of the Unseen World [2013 Документальный HDRip by _Один_777] VO Один 777 Скачать
1 | 0
Фильмы 2006-2008 [ 1.37 GB ] Невидимый мир / The World Unseen [2007 WEB-DLRip MVO |BaibaKo|] кэп Скачать
1 | 1

28-11-2019 20:33  

Отключить всю рекламу на сайте

    Дорогой пользователь! Огромная просьба, поблагодарите релизера, оцените раздачу и оставьте свои комментарий, если Вы скачали Невидимый через торрент бесплатно! Внесите свою лепту в развитие PiratBit!
    Комментировать посты могут только пользователи прошедшие не сложную регистрацию
    Показать сообщения:    

    Невидимый через торрент
    Скачать бесплатно Невидимый
    Невидимый скачать торрент
    Невидимый смотреть онлайн
    Cкачать фильм Невидимый бесплатно
    Невидимый скачать торрент в хорошем качестве
    Невидимый смотреть онлайн бесплатно в хорошем качестве


    Вы не можете начинать темы
    Вы не можете отвечать на сообщения
    Вы не можете редактировать свои сообщения
    Вы не можете удалять свои сообщения
    Вы не можете голосовать в опросах
    Вы не можете прикреплять файлы к сообщениям
    Вы можете скачивать файлы