Ссылка на приватное зеркало нашего сайта всего за 1$. Внимание количество ограничено!!!

2 сезон

iTunes

1 сезон

1

2 сезон

2 сезон

iTunes

1 сезон

RePack

30

Ultimate

ВАЖНО

ИГРА 18+

pack

RePack

MK11
pack

Забери бонус

RePack

jed

!!Акция!!

Alien_Rage

RePack

fifa19

RePack

Assassins Creed: Odyssey

RePack

NEED FOR SPEED™ PAYBACK

4 сезон

9 сезон

Бесстыжие 9 сезон

Все сериалы

все сериалы на PB.wtf

RePack

FAR CRY 5
  

Вершина озера / Top of the Lake / Сезон: 2 / Серии: 1-6 из 6 (Джейн Кэмпион, Ариел Кляйман, Гарт Дэвис) [2017, триллер, драма, криминал, детектив, WEB-DL 720p] MVO [Jaskier] pb.wtf

Вершина озера через торрент pb.wtf

Размер: 6.17 GB | Добавлен: 2 года 9 мес. назад | Торрент скачан:60 раз
Скачать  

17-02-2018 06:34 Вершина озера Скачать торрент  

Вершина озера / Top of the LakeГод выпуска: 2017
Страна: Великобритания, Австралия, Новая Зеландия, США
Студия: BBC Television Centre, BBC Worldwide
Жанр: триллер, драма, криминал, детектив
Продолжительность: 1 x ~ 00:55:00
Перевод: Профессиональный (многоголосый) - студия Jaskier
Субтитры: отсутствуют
Присутствует аудио-реклама. (один раз, в конце 8 сек.)

Режиссер: Джейн Кэмпион, Ариел Кляйман, Гарт Дэвис

rating

В ролях:

Элизабет Мосс, Питер Муллан. Томас М. Райт, Дэвид Уэнэм, Скай Уэнси, Женевьева Лемон, Робин Малкольм, Клэйтон Джейкобсон, Николь Кидман и др.

Описание:

После событий 1 сезона прошло четыре года, Сидней, наши дни. Робин Гриффин (Элизабет Мосс) служит в полиции, у неё новая, немного смешная и нелепая напарница (Гвендолин Кристи - леди Бриенна из "Игры престолов"), вместе с которой они и начинают расследовать новое загадочное убийство азиатской девушки, изувеченный труп которой вынесло в чемодане на городской пляж. Параллельно мы глубже погружаемся в личную трагедию Робин: она пытается найти дочь, от которой отказалась вскоре после ее рождения. Чувство вины и утраты не дает ей покоя. Расследование убийства странным образом совпадает с поисками дочери и приводит детектива Гриффин в очень опасные места. Также Робин пытается решить одну из загадок своего прошлого, связанную с ученой и феминисткой, осознавшей собственную гомосексуальность.

Качество: WEB-DL 720p
Формат: MKV
Видео кодек: H.264
Аудио кодек: AC3

Видео: ~ 2000 kbps, 1280x720, 25 fps
Аудио#1 Rus: AC3, 6 ch, 384 kbps
Аудио#2 Eng: AC3, 6 ch, 384 kbps


скриншот  скриншот  скриншот  

Общее
Уникальный идентификатор : 208713898097305449420169646227023917377 (0x9D04D5A95D2B51A8B34554E18AEEF141)
Полное имя : D:\Top of the Lake. Season 2 (WEB-DL l 720p l Jaskier)\Top.of.the.Lake.S02E01.720p.WEB-DL.DD5.1.H.264-Jaskier.mkv
Формат : Matroska
Версия формата : Version 2
Размер файла : 978 Мбайт
Продолжительность : 54 м. 57 с.
Режим общего битрейта : Переменный
Общий поток : 2487 Кбит/сек
Дата кодирования : UTC 2018-02-16 11:16:37
Программа кодирования : mkvmerge v7.8.0 ('River Man') 32bit built on Apr 3 2015 12:11:22
Библиотека кодирования : libebml v1.3.1 + libmatroska v1.4.2

Видео
Идентификатор : 1
Формат : AVC
Формат/Информация : Advanced Video Codec
Профиль формата : High@L3.1
Параметр CABAC формата : Да
Параметр ReFrames формата : 5 кадров
Идентификатор кодека : V_MPEG4/ISO/AVC
Продолжительность : 54 м. 57 с.
Вид битрейта : Переменный
Битрейт : 1670 Кбит/сек
Максимальный битрейт : 4500 Кбит/сек
Ширина : 1280 пикселей
Высота : 720 пикселей
Соотношение сторон : 16:9
Режим частоты кадров : Постоянный
Частота кадров : 25,000 кадров/сек
Цветовое пространство : YUV
Субдискретизация насыщенности : 4:2:0
Битовая глубина : 8 бит
Тип развёртки : Прогрессивная
Бит/(Пиксели*Кадры) : 0.072
Размер потока : 656 Мбайт (67%)
Язык : English
Default : Да
Forced : Нет
Цветовой диапазон : Limited
Основные цвета : BT.709
Характеристики трансфера : BT.709
Коэффициенты матрицы : BT.709

Аудио #1
Идентификатор : 2
Формат : AC-3
Формат/Информация : Audio Coding 3
Расширение режима : CM (complete main)
Параметр Endianness формата : Big
Идентификатор кодека : A_AC3
Продолжительность : 54 м. 57 с.
Вид битрейта : Постоянный
Битрейт : 384 Кбит/сек
Каналы : 6 каналов
Расположение каналов : Front: L C R, Side: L R, LFE
Частота : 48,0 КГц
Частота кадров : 31,250 кадров/сек (1536 spf)
Метод сжатия : С потерями
Размер потока : 151 Мбайт (15%)
Заголовок : Jaskier
Язык : Russian
Default : Да
Forced : Нет

Аудио #2
Идентификатор : 3
Формат : AC-3
Формат/Информация : Audio Coding 3
Расширение режима : CM (complete main)
Параметр Endianness формата : Big
Идентификатор кодека : A_AC3
Продолжительность : 54 м. 57 с.
Вид битрейта : Постоянный
Битрейт : 384 Кбит/сек
Каналы : 6 каналов
Расположение каналов : Front: L C R, Side: L R, LFE
Частота : 48,0 КГц
Частота кадров : 31,250 кадров/сек (1536 spf)
Метод сжатия : С потерями
Размер потока : 151 Мбайт (15%)
Язык : English
Default : Нет
Forced : Нет

pb.wtf



Скачать Вершина озера через торрент http://i99.fastpic.ru/big/2018/0127/61/3c69f170709d8e58ca0b04f07d8cc861.jpg Скачать фильм Вершина озера через торрент бесплантно в хорошем качестве Описание: После событий 1 сезона прошло четыре года, Сидней, наши дни. Робин Гриффин (Элизабет Мосс) служит в полиции, у неё новая, немного ... 10 10 5
Торрент: Зарегистрирован [2018-02-17 06:34] · скачан: 60 раз
Статус: √ проверено
Размер: 6.17 GB
Как cкачать? Как скачать Вершина озера через торрент | qTorrent

% Раздел Тема Автор DL S | L
Зарубежные сериалы [ 12.67 GB ] Вершина озера / Top of the Lake / Сезон: 2 / Серии: 1-6 из 6 [2017 WEBRip 1080p] MVO [Amedia] bober100 Скачать
1 | 0
Зарубежные сериалы [ 3.82 GB ] Вершина озера / Top of the Lake / Сезон: 2 / Серии: 1-6 из 6 [2017 WEB-DLRip] MVO [Jaskier] bober100 Скачать
1 | 0

28-11-2019 20:33  

Отключить всю рекламу на сайте

    Дорогой пользователь! Огромная просьба, поблагодарите релизера, оцените раздачу и оставьте свои комментарий, если Вы скачали Вершина озера через торрент бесплатно! Внесите свою лепту в развитие PiratBit!
    Комментировать посты могут только пользователи прошедшие не сложную регистрацию
    Показать сообщения:    

    Вершина озера через торрент
    Скачать бесплатно Вершина озера
    Вершина озера скачать торрент
    Вершина озера смотреть онлайн
    Cкачать фильм Вершина озера бесплатно
    Вершина озера скачать торрент в хорошем качестве
    Вершина озера смотреть онлайн бесплатно в хорошем качестве


    Вы не можете начинать темы
    Вы не можете отвечать на сообщения
    Вы не можете редактировать свои сообщения
    Вы не можете удалять свои сообщения
    Вы не можете голосовать в опросах
    Вы не можете прикреплять файлы к сообщениям
    Вы можете скачивать файлы