Ссылка на приватное зеркало нашего сайта всего за 1$. Внимание количество ограничено!!!

2 сезон

iTunes

1 сезон

1

iTunes

iTunes

iTunes

1 сезон

RePack

30

ИГРА 18+

pack

ВАЖНО

!!Акция!!

Alien_RageХит недели

RePack

MK11
pack

Забери бонус

RePack

jed

!!Акция!!

Alien_Rage

RePack

fifa19

RePack

Assassins Creed: Odyssey

RePack

NEED FOR SPEED™ PAYBACK

4 сезон

9 сезон

Бесстыжие 9 сезон

Все сериалы

все сериалы на PB.wtf

RePack

FAR CRY 5
  

Радуга в поднебесье / Серия 1-4 из 4 / [2018 г., Мелодрама, SATRip] pb.wtf

Радуга в поднебесье через торрент pb.wtf

Размер: 2.45 GB | Добавлен: 2 года 8 мес. назад | Торрент скачан:154 раза
Скачать  

17-02-2018 10:20 Радуга в поднебесье Скачать торрент  

Радуга в поднебесье / Серия 1-4 из 4 /

Год выпуска: 2018
Страна: Россия
Жанр: Мелодрама
Продолжительность: 4 х ~ 00:45:00
Субтитры: нет

В ролях: Пелагея Невзорова, Максим Иванов, Анна Гуляренко, Сергей Баталов, Полина Леонова, Валерий Афанасьев, Олег Загородний, Екатерина Травова, Екатерина Соломатина

Описание: Когда младший брат Вадима совершает ограбление, их мать обещает покончить с собой, если Вадим не найдет способ спасти брата от тюрьмы. Вадиму приходится расстаться с любимой девушкой Катей и жениться на влюбленной в него Инне, дочери главы Администрации. Катя исчезает, так и не сказав Вадиму, что беременна. Спустя пять лет Вадим, уже успешный чиновник, случайно встречает Катю и узнает, что у него есть сын Миша. Но Катя уверена, что он не нужен ни ей, ни сыну. Вадиму приходится признаться самому себе, что он совершил ошибку и сам разрушил свое счастье. И ради кого? Ради деспотичной матери, которая его использовала, но никогда не любила? Ради обожаемого матерью брата – пьяницы и уголовника, которого давно нужно было посадить? Вадиму придется выбрать – богатая жизнь с нелюбимой женщиной или настоящая семья с Катей и Мишкой? И, главное, понять, как заслужить прощение Кати?..

Качество: SATRip
Формат: AVI
Видео кодек: XviD
Аудио кодек: MP3
Видео: 720x400 (1.80:1), 25 fps, XviD build 50 ~1800 kbps
Аудио#1: 48 kHz, MPEG Layer 3, 2 ch, ~128.00 kbps
скриншот   скриншот   скриншот   скриншот  

General
Complete name : H:\релизы.торрентфайл\Raduga.v.podnebese.SATRip.[www.riperam.org]\Raduga.v.podnebese.01.SATRip.[www.riperam.org].avi
Format : AVI
Format/Info : Audio Video Interleave
File size : 601 MiB
Duration : 43mn 23s
Overall bit rate : 1 938 Kbps
Writing application : VirtualDubMod 1.5.10.3 | www.virtualdub-fr.org || (build 2550/release)
Writing library : VirtualDubMod build 2550/release

Video
ID : 0
Format : MPEG-4 Visual
Format profile : Advanced Simple@L5
Format settings, BVOP : 2
Format settings, QPel : No
Format settings, GMC : No warppoints
Format settings, Matrix : Default (H.263)
Codec ID : XVID
Codec ID/Hint : XviD
Duration : 43mn 23s
Bit rate : 1 800 Kbps
Width : 720 pixels
Height : 400 pixels
Display aspect ratio : 16:9
Frame rate : 25.000 fps
Color space : YUV
Chroma subsampling : 4:2:0
Bit depth : 8 bits
Scan type : Progressive
Compression mode : Lossy
Bits/(Pixel*Frame) : 0.250
Stream size : 559 MiB (93%)
Writing library : XviD 1.2.1 (UTC 2008-12-04)

Audio
ID : 1
Format : MPEG Audio
Format version : Version 1
Format profile : Layer 3
Mode : Joint stereo
Mode extension : MS Stereo
Codec ID : 55
Codec ID/Hint : MP3
Duration : 43mn 23s
Bit rate mode : Constant
Bit rate : 128 Kbps
Channel(s) : 2 channels
Sampling rate : 48.0 KHz
Compression mode : Lossy
Stream size : 39.7 MiB (7%)
Alignment : Aligned on interleaves
Interleave, duration : 40 ms (1.00 video frame)
Interleave, preload duration : 504 ms
Writing library : LAME3.99r
Encoding settings : -m j -V 4 -q 9 -lowpass 17 -b 128

pb.wtf



Скачать Радуга в поднебесье через торрент http://i100.fastpic.ru/big/2018/0217/5b/354de4b5209b9e4bcbd1279c6d69965b.jpg Скачать фильм Радуга в поднебесье через торрент бесплантно в хорошем качестве Описание: Когда младший брат Вадима совершает ограбление, их мать обещает покончить с собой, если Вадим не найдет способ спасти брата от ... 10 10 2
Торрент: Зарегистрирован [2018-02-17 10:20] · скачан: 154 раз
Статус: √ проверено
Размер: 2.45 GB
Как cкачать? Как скачать Радуга в поднебесье через торрент | qTorrent

28-11-2019 20:33  

Отключить всю рекламу на сайте

    Дорогой пользователь! Огромная просьба, поблагодарите релизера, оцените раздачу и оставьте свои комментарий, если Вы скачали Радуга в поднебесье через торрент бесплатно! Внесите свою лепту в развитие PiratBit!
    Комментировать посты могут только пользователи прошедшие не сложную регистрацию
    Показать сообщения:    

    Радуга в поднебесье через торрент
    Скачать бесплатно Радуга в поднебесье
    Радуга в поднебесье скачать торрент
    Радуга в поднебесье смотреть онлайн
    Cкачать фильм Радуга в поднебесье бесплатно
    Радуга в поднебесье скачать торрент в хорошем качестве
    Радуга в поднебесье смотреть онлайн бесплатно в хорошем качестве


    Вы не можете начинать темы
    Вы не можете отвечать на сообщения
    Вы не можете редактировать свои сообщения
    Вы не можете удалять свои сообщения
    Вы не можете голосовать в опросах
    Вы не можете прикреплять файлы к сообщениям
    Вы можете скачивать файлы