MEGA SALE -50% FORZA HORIZON 4 ULTIMATE+ВСЕ DLC+ОНЛАЙН всего за 599р. 299 руб. (супер цена). Внимание количество ограничено!!!

iTunes

1+1

iTunes

мы

iTunes

1

iTunes

Чернобыль

iTunes

Ральф против интернета

Лицензия

ПШазам

Лицензия

Игра престолов

Лицензия

30
pack

ВАЖНО

!!Акция!!

Alien_RageХит недели

RePack

Resident Evil 21

ИГРА 18+

pack

RePack

Metro:Exodus

!!Акция!!

Alien_Rage

RePack

fifa19

RePack

Assassins Creed: Odyssey

RePack

NEED FOR SPEED™ PAYBACK

3 сезон

9 сезон

Бесстыжие 9 сезон

Все сериалы

все сериалы на PB.wtf

RePack

FAR CRY 5
Ребята, катастрофически не хватает 7730р. для оплаты серверов за ИЮЛЬ (всвязи с блокировками трафик упал в 3 раза), 1-2р., выручайте.
  

Прощай, Кристофер Робин / Goodbye Christopher Robin (Саймон Кёртис) [2017 г., семейный, биография, история, HDRip] MVO [Лицензия] pb.wtf

Прощай, Кристофер Робин через торрент pb.wtf

Размер: 747 MB | Добавлен: 1 год 6 мес. назад | Торрент скачан:62 раза
Скачать  

17-02-2018 10:46 Прощай, Кристофер Робин Скачать торрент  

Прощай, Кристофер Робин / Goodbye Christopher Robin (2017) HDRip «Inspired by the True Story»

Год выпуска: 2017
Страна: Великобритания
Производство: DJ Films, Fox Searchlight Pictures
Жанр: Семейный, биография, история
Продолжительность: 01:47:01

Режиссёр: Саймон Кёртис
В ролях: Донал Глисон, Марго Робби, Келли Макдоналд, Вики Пеппердин, Уилл Тилстон, Алекс Лоутер, Стивен Кэмпбелл Мур, Ричард МакКейб

Перевод: Профессиональный (многоголосый, закадровый) [Лицензия BD EUR]
Субтитры: Отсутствуют

Описание: Картина расскажет о взаимоотношениях между А. А. Милном и его сыном Кристофером Робином, чьи игрушки вдохновили писателя на создание волшебного мира повестей о Винни-Пухе.



Формат: AVI
Качество: HDRip

Видео кодек: XviD
Аудио кодек: МР3
Видео: 624x336 (1.85:1), 23.976 fps, XviD ~ 842 kbps avg, 0.167 bit/pixel
Аудио: МР3, 48 kHz, 2 ch, ~ 128.00 kbps avg

Дата премьеры (мир): 20 сентября 2017
Дата премьеры (РФ): 23 ноября 2017, «Двадцатый Век Фокс СНГ», «CoolConnections»
General
Complete name : F:\Готовые торренты\Goodbye.Christopher.Robin.2017.HDRip.745MB.P.MegaPeer.avi
Format : AVI
Format/Info : Audio Video Interleave
File size : 747 MiB
Duration : 1h 47mn
Overall bit rate : 976 Kbps

Video
ID : 0
Format : MPEG-4 Visual
Format profile : Advanced Simple@L5
Format settings, BVOP : 1
Format settings, QPel : No
Format settings, GMC : No warppoints
Format settings, Matrix : Custom
Codec ID : XVID
Codec ID/Hint : XviD
Duration : 1h 47mn
Bit rate : 842 Kbps
Width : 624 pixels
Height : 336 pixels
Display aspect ratio : 1.85:1
Frame rate : 23.976 (24000/1001) fps
Color space : YUV
Chroma subsampling : 4:2:0
Bit depth : 8 bits
Scan type : Progressive
Compression mode : Lossy
Bits/(Pixel*Frame) : 0.167
Stream size : 644 MiB (86%)
Writing library : XviD 73

Audio
ID : 1
Format : MPEG Audio
Format version : Version 1
Format profile : Layer 3
Codec ID : 55
Codec ID/Hint : MP3
Duration : 1h 47mn
Bit rate mode : Constant
Bit rate : 128 Kbps
Channel(s) : 2 channels
Sampling rate : 48.0 KHz
Compression mode : Lossy
Stream size : 98.0 MiB (13%)
Alignment : Aligned on interleaves
Interleave, duration : 167 ms (4.00 video frames)
Interleave, preload duration : 216 ms
Writing library : LAME3.99r
Encoding settings : -m s -V 4 -q 2 -lowpass 17 -b 128
скриншот  скриншот  скриншот  pb.wtf



Скачать Прощай, Кристофер Робин через торрент http://i102.fastpic.ru/big/2018/0217/4e/e32e52adf9bfa3efba59017e43999d4e.png Скачать фильм Прощай, Кристофер Робин через торрент бесплантно в хорошем качестве Описание: Картина расскажет о взаимоотношениях между А. А. Милном и его сыном Кристофером Робином, чьи игрушки вдохновили писателя на ... 10 10 2
Торрент: Зарегистрирован [2018-02-17 10:46] · скачан: 62 раз
Статус: √ проверено
Размер: 747 MB
Как cкачать? Как скачать Прощай, Кристофер Робин через торрент | qTorrent

% Раздел Тема Автор DL S | L
Фильмы 2017 [DVDrip, WEB-DLRip, HDrip] (DUB, MVO) [ 1.46 GB ] Прощай Кристофер Робин / Goodbye Christopher Robin [2017 биография история BDRip] MVO [] Twi7ter Скачать
5 | 0
Фильмы [HD 720p, 1080p] (Хороший звук DUB, MVO) [ 7.85 GB ] Прощай Кристофер Робин / Goodbye Christopher Robin [2017 биография история BDRip 720p] MVO [] bober100 Скачать
1 | 0
Фильмы [HD 720p, 1080p] (Хороший звук DUB, MVO) [ 13.33 GB ] Прощай Кристофер Робин / Goodbye Christopher Robin [2017 биография история BDRip 1080p] MVO [] bober100 Скачать
1 | 0
Фильмы 2017 [DVDrip, WEB-DLRip, HDrip] (DUB, MVO) [ 1.46 GB ] Прощай Кристофер Робин / Goodbye Christopher Robin [2017 биография история BDRip] MVO [] bober100 Скачать
1 | 0
Фильмы 2017 [DVDrip, WEB-DLRip, HDrip] (DUB, MVO) [ 2.37 GB ] Прощай Кристофер Робин / Goodbye Christopher Robin [2017 биография история BDRip-AVC] MVO [] bober100 Скачать
1 | 0
Фильмы (Blu-ray, BD-Remux, HDDVD) [ 24.66 GB ] Прощай Кристофер Робин / Goodbye Christopher Robin [2017 биография история BD Remux 1080p] MVO bober100 Скачать
1 | 0
Фильмы (WEB-DL 720p, 1080p) [ 4.41 GB ] Прощай Кристофер Робин / Goodbye Christopher Robin [2017 биография история WEB-DL 1080p] MVO WorldSM Скачать
2 | 0


>> Регистрируемся здесь <<






Отзывы и комментарии о схеме читаем и пишем здесь: ---> Отзывы и комментарии о схеме

Новые благодарочки в телеграм довольных пользователей:
скриншот   скриншот   скриншот   скриншот   скриншот

17-02-2018 13:24 Прощай, Кристофер Робин Скачать торрент  

Скучный унылый фильм ниочём ... как и большинство британских .pb.wtf



    Дорогой пользователь! Огромная просьба, поблагодарите релизера, оцените раздачу и оставьте свои комментарий, если Вы скачали Прощай, Кристофер Робин через торрент бесплатно! Внесите свою лепту в развитие PiratBit!
    Комментировать посты могут только пользователи прошедшие не сложную регистрацию
    Показать сообщения:    

    Прощай, Кристофер Робин через торрент
    Скачать бесплатно Прощай, Кристофер Робин
    Прощай, Кристофер Робин скачать торрент
    Прощай, Кристофер Робин смотреть онлайн
    Cкачать фильм Прощай, Кристофер Робин бесплатно
    Прощай, Кристофер Робин скачать торрент в хорошем качестве
    Прощай, Кристофер Робин смотреть онлайн бесплатно в хорошем качестве


    Вы не можете начинать темы
    Вы не можете отвечать на сообщения
    Вы не можете редактировать свои сообщения
    Вы не можете удалять свои сообщения
    Вы не можете голосовать в опросах
    Вы не можете прикреплять файлы к сообщениям
    Вы можете скачивать файлы