2 сезон

iTunes

MVO

1

2 сезон

iTunes

iTunes

1 сезон

RePack

30

Новинка

ВАЖНО

ИГРА 18+

pack

RePack

MK11
pack

Легкие деньги

RePack

jed

RePack

fifa19

RePack

RDR2

RePack

NEED FOR SPEED™ PAYBACK

4 сезон

9 сезон

Бесстыжие 9 сезон

Все сериалы

все сериалы на PB.wtf

RePack

FAR CRY 5

Anonymous, добрый день, мы не успеваем собрать деньги на оплату серверов за декабрь и январь, помогите нам пожалуйста в это трудное время. В качестве благодарности мы отключим Вам всю рекламу на сайте (укажите свой ник в строку Ваше имя)!

×
  
Magnet ссылка

Счастливого дня смерти / Happy Death Day (Кристофер Лэндон / Christopher Landon) [2017, ужасы, триллер, детектив, BDRip-AVC] Dub [Лицензия] pb.wtf

Счастливого дня смерти через торрент pb.wtf

Раздают: 2 [ 0 KB/s ]
Размер: 2.18 GB | Добавлен: 2 года 11 мес. назад | Торрент скачан:1062 раза
Скачать  

17-02-2018 14:55 Счастливого дня смерти Скачать торрент  

Счастливого дня смерти
Happy Death Day

«Проснись. Отпразднуй день рождения. Умри. Повтори. Снова и снова...»


Страна: США
Жанр: ужасы, триллер, детектив, комедия

Год выпуска: 2017
Продолжительность: 01:36:11

Перевод: Профессиональный (полное дублирование) [Blu-ray EUR]
Субтитры: русские (форсированные, полные), английские (полные, SDH, SDH цветные)
Оригинальная аудиодорожка: английский

Режиссер: Кристофер Лэндон / Christopher Landon

В ролях: Джессика Рот, Израэль Бруссар, Руби Модин, Чарльз Эйткин, Лаура Клифтон, Джейсон Бэйл, Роб Мелло, Рэйчел Мэттьюз, Рэмси Андерсон, Брэйди Льюис, Фи Ву, Тени Интриаго

Описание:
Каждый в универе мечтал попасть на её день рождения, но праздник был безнадежно испорчен незнакомцем в маске, убившим виновницу торжества. Однако судьба преподнесла имениннице леденящий душу подарок - бесконечный запас жизней. И теперь у девушки появился шанс вычислить своего убийцу, ведь этот день будет повторяться снова и снова...



Релиз:

Автор рипа: stalkerok | Моя группа

Сэмпл

Качество видео: BDRip-AVC [Happy.Death.Day.2017.1080p.Blu-ray.AVC.DTS-HD.MA.5.1-nLiBRA]
Формат видео: MKV
Видео кодек: AVC
Аудио кодек: AC3
Видео: AVC, 2351 Кбит/сек, 1152x482 (2.40:1), 23,976 кадр/сек
Аудио #1: AC3, 448 Кбит/сек, 48 КГц, 5.1 - русский
Аудио #2: AC3, 448 Кбит/сек, 48 КГц, 5.1 - английский
Навигация по главам: есть

---[Information] [17.02.2018 17:26:13] x264 [info]: frame I:1236 Avg QP:14.19 size: 89375
---[Information] [17.02.2018 17:26:13] x264 [info]: frame P:32115 Avg QP:17.95 size: 25334
---[Information] [17.02.2018 17:26:13] x264 [info]: frame B:105023 Avg QP:19.72 size: 7329

Общее
Уникальный идентификатор : 242642292938481339337676913084683724910 (0xB68B34ADA33C2CFB898D756CEDE7286E)
Полное имя : M:\$new\Happy Death Day (2017)\Happy.Death.Day.2017.BDRip-AVC.RUS.ENG.stalkerok.new-team.mkv
Формат : Matroska
Версия формата : Version 4 / Version 2
Размер файла : 2,18 Гбайт
Продолжительность : 1 ч. 36 м.
Общий поток : 3246 Кбит/сек
Название фильма : Happy Death Day (2017) (Rip by stalkerok)
Дата кодирования : UTC 2018-02-17 14:32:08
Программа кодирования : mkvmerge v8.6.1 ('Flying') 64bit
Библиотека кодирования : libebml v1.3.3 + libmatroska v1.4.4

Видео
Идентификатор : 4
Формат : AVC
Формат/Информация : Advanced Video Codec
Профиль формата : High@L4.1
Параметр CABAC формата : Да
Параметр ReFrames формата : 12 кадров
Идентификатор кодека : V_MPEG4/ISO/AVC
Продолжительность : 1 ч. 36 м.
Битрейт : 2351 Кбит/сек
Ширина : 1152 пикселя
Высота : 482 пикселя
Соотношение сторон : 2,40:1
Режим частоты кадров : Постоянный
Частота кадров : 23,976 (24000/1001) кадра/сек
Цветовое пространство : YUV
Субдискретизация насыщенности : 4:2:0
Битовая глубина : 8 бит
Тип развёртки : Прогрессивная
Бит/(Пиксели*Кадры) : 0.177
Размер потока : 1,58 Гбайт (72%)
Заголовок : Happy Death Day (2017) (Rip by stalkerok)
Библиотека кодирования : x264 core 152 r2851kMod ba24899
Настройки программы : cabac=1 / ref=12 / deblock=1:-3:-2 / analyse=0x3:0x133 / me=umh / subme=11 / psy=1 / fade_compensate=0.00 / psy_rd=1.00:0.00 / mixed_ref=1 / me_range=32 / chroma_me=1 / trellis=2 / 8x8dct=1 / cqm=0 / deadzone=21,11 / fast_pskip=0 / chroma_qp_offset=-2 / threads=12 / lookahead_threads=3 / sliced_threads=0 / nr=0 / decimate=0 / interlaced=0 / bluray_compat=0 / constrained_intra=0 / bframes=14 / b_pyramid=2 / b_adapt=2 / b_bias=0 / direct=3 / weightb=1 / open_gop=0 / weightp=2 / keyint=240 / keyint_min=23 / scenecut=40 / intra_refresh=0 / rc_lookahead=60 / rc=2pass / mbtree=0 / bitrate=2351 / ratetol=1.0 / qcomp=0.65 / qpmin=0 / qpmax=69 / qpstep=4 / cplxblur=20.0 / qblur=0.5 / vbv_maxrate=50000 / vbv_bufsize=62500 / nal_hrd=none / filler=0 / ip_ratio=1.40 / pb_ratio=1.30 / aq=3:0.80 / zones=130050,138373,q=30
Default : Да
Forced : Нет

Аудио #1
Идентификатор : 1
Формат : AC-3
Формат/Информация : Audio Coding 3
Расширение режима : CM (complete main)
Параметр Endianness формата : Big
Идентификатор кодека : A_AC3
Продолжительность : 1 ч. 36 м.
Вид битрейта : Постоянный
Битрейт : 448 Кбит/сек
Каналы : 6 каналов
Расположение каналов : Front: L C R, Side: L R, LFE
Частота : 48,0 КГц
Частота кадров : 31,250 кадров/сек (1536 spf)
Метод сжатия : С потерями
Размер потока : 308 Мбайт (14%)
Язык : Russian
Default : Да
Forced : Нет

Аудио #2
Идентификатор : 5
Формат : AC-3
Формат/Информация : Audio Coding 3
Расширение режима : CM (complete main)
Параметр Endianness формата : Big
Идентификатор кодека : A_AC3
Продолжительность : 1 ч. 36 м.
Вид битрейта : Постоянный
Битрейт : 448 Кбит/сек
Каналы : 6 каналов
Расположение каналов : Front: L C R, Side: L R, LFE
Частота : 48,0 КГц
Частота кадров : 31,250 кадров/сек (1536 spf)
Метод сжатия : С потерями
Размер потока : 308 Мбайт (14%)
Язык : English
Default : Нет
Forced : Нет

Текст #1
Идентификатор : 2
Формат : UTF-8
Идентификатор кодека : S_TEXT/UTF8
Идентификатор кодека/Информация : UTF-8 Plain Text
Продолжительность : 1 ч. 28 м.
Битрейт : 2 бит/сек
Count of elements : 37
Размер потока : 1,34 Кбайт (0%)
Заголовок : Forced
Язык : Russian
Default : Да
Forced : Нет

Текст #2
Идентификатор : 3
Формат : UTF-8
Идентификатор кодека : S_TEXT/UTF8
Идентификатор кодека/Информация : UTF-8 Plain Text
Продолжительность : 1 ч. 28 м.
Битрейт : 88 бит/сек
Count of elements : 1280
Размер потока : 57,3 Кбайт (0%)
Язык : Russian
Default : Нет
Forced : Нет

Текст #3
Идентификатор : 6
Формат : UTF-8
Идентификатор кодека : S_TEXT/UTF8
Идентификатор кодека/Информация : UTF-8 Plain Text
Продолжительность : 1 ч. 30 м.
Битрейт : 55 бит/сек
Count of elements : 1434
Размер потока : 37,1 Кбайт (0%)
Язык : English
Default : Нет
Forced : Нет

Текст #4
Идентификатор : 7
Формат : UTF-8
Идентификатор кодека : S_TEXT/UTF8
Идентификатор кодека/Информация : UTF-8 Plain Text
Продолжительность : 1 ч. 35 м.
Битрейт : 63 бит/сек
Count of elements : 1735
Размер потока : 44,2 Кбайт (0%)
Заголовок : SDH
Язык : English
Default : Нет
Forced : Нет

Текст #5
Идентификатор : 8
Формат : UTF-8
Идентификатор кодека : S_TEXT/UTF8
Идентификатор кодека/Информация : UTF-8 Plain Text
Продолжительность : 1 ч. 35 м.
Битрейт : 142 бит/сек
Count of elements : 1738
Размер потока : 99,5 Кбайт (0%)
Заголовок : SDH Colored
Язык : English
Default : Нет
Forced : Нет

Меню
00:00:00.000 : en:Chapter 1
00:04:54.460 : en:Chapter 2
00:10:26.000 : en:Chapter 3
00:14:10.683 : en:Chapter 4
00:21:46.722 : en:Chapter 5
00:25:08.798 : en:Chapter 6
00:29:37.859 : en:Chapter 7
00:33:09.320 : en:Chapter 8
00:37:50.142 : en:Chapter 9
00:41:46.170 : en:Chapter 10
00:44:54.191 : en:Chapter 11
00:53:07.934 : en:Chapter 12
00:57:28.361 : en:Chapter 13
01:00:18.448 : en:Chapter 14
01:07:41.557 : en:Chapter 15
01:12:16.290 : en:Chapter 16
01:16:35.090 : en:Chapter 17
01:21:17.080 : en:Chapter 18
01:27:13.645 : en:Chapter 19
01:30:24.168 : en:Chapter 20
скриншот   скриншот   скриншот   скриншот   скриншот   скриншот  
pb.wtf



Скачать Счастливого дня смерти через торрент http://i6.imageban.ru/out/2017/09/18/2ff75c0c358795c5946784cc1680714d.png Скачать фильм Счастливого дня смерти через торрент бесплантно в хорошем качестве Описание:Каждый в универе мечтал попасть на её день рождения, но праздник был безнадежно испорчен незнакомцем в маске, убившим виновницу ... 9.9 10 10
Info! Золотая раздача, скачанное не засчитывается.
Торрент: Зарегистрирован [2018-02-17 14:55] · скачан: 1 062 раз
Статус: √ проверено
Размер: 2.18 GB
Как cкачать? Как скачать Счастливого дня смерти через торрент | UTorrent

% Раздел Тема Автор DL S | L
Фильмы (HD 720p, 1080p) (48-60 fps) [ 11.91 GB ] Счастливого нового дня смерти / Happy Death Day 2U [2019 BDRip 1080p 60 fps] DUB sheker187 Скачать
1 | 0
Ultra HD (UHD: 2K, 4K, 8K) — видео сверхвысокой чёткости [ 16.11 GB ] Счастливого нового дня смерти / Happy Death Day 2U [2019 UHD WEBRip 2160p] [] sheker187 Скачать
1 | 0
Фильмы [HD 720p, 1080p] (Хороший звук DUB, MVO) [ 13.07 GB ] Счастливого нового дня смерти / Happy Death Day 2U [2019 BDRip 1080p] DUB [] bober100 Скачать
1 | 0
Фильмы 2019-2020 [DVDrip, WEB-DLRip, HDrip] (DUB, MVO) [ 1.46 GB ] Счастливого нового дня смерти / Happy Death Day 2U [2019 BDRip] DUB [ Blu-Ray EUR] bober100 Скачать
4 | 0
Фильмы (Blu-ray, BD-Remux, HDDVD) [ 21.74 GB ] Счастливого нового дня смерти / Happy Death Day 2U [2019 BD Remux 1080p] DUB [] bober100 Скачать
1 | 0
Фильмы [HD 720p, 1080p] (Хороший звук DUB, MVO) [ 6.26 GB ] Счастливого нового дня смерти / Happy Death Day 2U [2019 BDRip 720p] DUB [] bober100 Скачать
1 | 0
Фильмы (Blu-ray, BD-Remux, HDDVD) [ 30.75 GB ] Счастливого нового дня смерти / Happy Death Day 2U [2019 Blu-ray EUR 1080p] DUB [] bober100 Скачать
1 | 0

28-11-2019 20:33  

Отключить всю рекламу на сайте

    Дорогой пользователь! Огромная просьба, поблагодарите релизера, оцените раздачу и оставьте свои комментарий, если Вы скачали Счастливого дня смерти через торрент бесплатно! Внесите свою лепту в развитие PiratBit!
    Комментировать посты могут только пользователи прошедшие не сложную регистрацию
    Показать сообщения:    

    Счастливого дня смерти через торрент
    Скачать бесплатно Счастливого дня смерти
    Счастливого дня смерти скачать торрент
    Счастливого дня смерти смотреть онлайн
    Cкачать фильм Счастливого дня смерти бесплатно
    Счастливого дня смерти скачать торрент в хорошем качестве
    Счастливого дня смерти смотреть онлайн бесплатно в хорошем качестве


    Вы не можете начинать темы
    Вы не можете отвечать на сообщения
    Вы не можете редактировать свои сообщения
    Вы не можете удалять свои сообщения
    Вы не можете голосовать в опросах
    Вы не можете прикреплять файлы к сообщениям
    Вы можете скачивать файлы