Доктор Стрэндж

Лицензия

Добыча

MVO

Дом дракона

1 сезон

Тор

Лицензия

Мэверик

Лицензия

Там, где раки поют

MVO

Властелин колец

1 сезон

Ultimate

pack

Рекомендуем

30

Repack

ВАЖНО

ВАЖНО

Ghostwire

RePack

jed

RePack

nioh2

RePack

RDR2

RePack

NEED FOR SPEED™ PAYBACK

RePack

скачать торрент

Кинопоиск HD

Острые козырьки 6 сезон

6 сезон

FAR CRY 6

RePack

скачать торрент

Лицензия

скачать торрент

MVO

1

1 сезон

скачать торрент

1 сезон

скачать торрент

Лицензия

  

И проиграли бой / In Dubious Battle (Джеймс Франко) [2016, драма, BDRip 720p] DUB [Line]

И проиграли бой через торрент pb.wtf

Размер: 5.05 GB | Добавлен: 4 года 7 мес. назад | Торрент скачан:59 раз
Смотреть онлайн И проиграли бой | Скачать   

17-02-2018 17:19 И проиграли бой Скачать торрент  

И проиграли бой / In Dubious BattleГод выпуска: 2016
Страна: США
Жанр: драма
Продолжительность: 01:54:08
Перевод: Дубляж - [Line]
Субтитры: отсутствуют

Режиссер: Джеймс Франко

rating

В ролях:

Джеймс Франко, Брайан Крэнстон, Роберт Дювалл, Эд Харрис, Селена Гомес, Нат Вулф, Винсент Д Онофрио, Ана О Райли, Анали Типтон, Джек Келер

Описание:

1930 год. Решающий момент в истории США - рабочие по всей стране начинают создавать профсоюзы для защиты своих прав, пытаются бороться за лучшее обращение и достойную заработную плату. В Калифорнийской долине между мигрантами-сборщиками яблок и членами ассоциации местных овощеводов возникает трудовой конфликт. Активист «Партии» Джим Нолан, понимая важность организованного труда, начинает участвовать в рабочем движении и организовывает крупную забастовку с участием около 900 сборщиков яблок, чтобы привлечь больше людей к своему делу.

Качество: BDRip 720p
Формат: MKV

Видео: MPEG-4 AVC, 5889 Кбит/с, 1280x534
Аудио#1: AC3, 2 ch, 448 Кбит/с

скриншот  скриншот  скриншот  

Общее
Уникальный идентификатор : 213378084918732393820471746040187642559 (0xA0871FD392B50498BFB89E8E6984E2BF)
Полное имя : D:\In.Dubious.Battle.2016.D.BDRip.72Op_KOSHARA.mkv
Формат : Matroska
Версия формата : Version 2
Размер файла : 5,05 Гбайт
Продолжительность : 1 ч. 54 м.
Режим общего битрейта : Переменный
Общий поток : 6339 Кбит/сек
Дата кодирования : UTC 2018-02-17 11:47:01
Программа кодирования : mkvmerge v8.3.0 ('Over the Horizon') 64bit
Библиотека кодирования : libebml v1.3.1 + libmatroska v1.4.2

Видео
Идентификатор : 1
Формат : AVC
Формат/Информация : Advanced Video Codec
Профиль формата : [email protected]
Параметр CABAC формата : Да
Параметр ReFrames формата : 4 кадра
Идентификатор кодека : V_MPEG4/ISO/AVC
Продолжительность : 1 ч. 54 м.
Вид битрейта : Переменный
Битрейт : 5889 Кбит/сек
Максимальный битрейт : 6500 Кбит/сек
Ширина : 1280 пикселей
Высота : 534 пикселя
Соотношение сторон : 2,40:1
Режим частоты кадров : Постоянный
Частота кадров : 23,976 (24000/1001) кадра/сек
Стандарт вещания : Component
Цветовое пространство : YUV
Субдискретизация насыщенности : 4:2:0
Битовая глубина : 8 бит
Тип развёртки : Прогрессивная
Бит/(Пиксели*Кадры) : 0.352
Размер потока : 4,60 Гбайт (91%)
Default : Да
Forced : Нет
Цветовой диапазон : Limited
Основные цвета : BT.709
Характеристики трансфера : BT.709
Коэффициенты матрицы : BT.709

Аудио
Идентификатор : 2
Формат : AC-3
Формат/Информация : Audio Coding 3
Расширение режима : CM (complete main)
Параметр Endianness формата : Big
Идентификатор кодека : A_AC3
Продолжительность : 1 ч. 54 м.
Вид битрейта : Постоянный
Битрейт : 448 Кбит/сек
Каналы : 2 канала
Расположение каналов : Front: L R
Частота : 48,0 КГц
Частота кадров : 31,250 кадров/сек (1536 spf)
Метод сжатия : С потерями
Размер потока : 366 Мбайт (7%)
Default : Да
Forced : Нет




Скачать И проиграли бой через торрент http://img12.lostpic.net/2018/02/17/afc8258004a9f94cf4e097377ce6a068.jpg Скачать, смотреть онлайн И проиграли бой бесплантно в хорошем качестве Описание: 1930 год. Решающий момент в истории США - рабочие по всей стране начинают создавать профсоюзы для защиты своих прав, пытаются ... 9.8 10 4
Торрент: Зарегистрирован [2018-02-17 17:19] · скачан: 59 раз
Статус: # сомнительно
Размер: 5.05 GB
Как cкачать? Как скачать И проиграли бой через торрент | UTorrent

% Раздел Тема Автор DL S | L
Фильмы 2016 [DVDrip, WEB-DLRip, HDrip] (DUB, MVO) [ 1.62 GB ] И проиграли бой / In Dubious Battle | | HDRip killermax2013 Скачать
1 | 0
T Фильмы (мультфильмы) cо спонсором показа (Новинки AVI/MKV) [ 1.46 GB ] И проиграли бой / In Dubious Battle | DUB | HDRip bober100 Скачать
1 | 0
T Фильмы (WEB-DL 720p, 1080p) [ 4.34 GB ] И проиграли бой / In Dubious Battle | | 1080p Ворон Скачать
1 | 0
T Фильмы 2016 [DVDrip, WEB-DLRip, HDrip] (DUB, MVO) [ 1.46 GB ] И проиграли бой / In Dubious Battle | | DLRip Ворон Скачать
1 | 0

28-11-2019 20:33  

Отключить вcю реклaмy на сайте

    Дорогой пользователь! Огромная просьба, поблагодарите релизера, оцените раздачу и оставьте свои комментарий, если Вы скачали И проиграли бой через торрент бесплатно!!
    Комментировать посты могут только пользователи прошедшие не сложную регистрацию
    Показать сообщения:    


    И проиграли бой через торрент
    Скачать бесплатно И проиграли бой
    И проиграли бой скачать торрент
    И проиграли бой смотреть онлайн
    Cкачать фильм И проиграли бой бесплатно
    И проиграли бой скачать торрент в хорошем качестве
    И проиграли бой смотреть онлайн бесплатно в хорошем качестве
    Вы не можете начинать темы
    Вы не можете отвечать на сообщения
    Вы не можете редактировать свои сообщения
    Вы не можете удалять свои сообщения
    Вы не можете голосовать в опросах
    Вы не можете прикреплять файлы к сообщениям
    Вы можете скачивать файлы