Marvel's Avengers Deluxe Edition (супер цена) 159р. Внимание количество ограничено!!!

2 сезон

iTunes

iTunes

1

iTunes

iTunes

iTunes

WEBRip

iTunes

30
pack

Новость дня

ВАЖНО

!!Акция!!

Alien_RageХит недели

RePack

Horizon Zero Dawn

ИГРА 18+

pack

RePack

jed

!!Акция!!

Alien_Rage

RePack

fifa19

RePack

Assassins Creed: Odyssey

RePack

NEED FOR SPEED™ PAYBACK

4 сезон

9 сезон

Бесстыжие 9 сезон

Все сериалы

все сериалы на PB.wtf

RePack

FAR CRY 5
  

Босиком / Po strnisti bos (Ян Сверак) [2017, драма, комедия, WEB-DL 720p] MVO ["Синема УС] pb.wtf

Босиком через торрент pb.wtf

Размер: 3.48 GB | Добавлен: 2 года 7 мес. назад | Торрент скачан:33 раза
Скачать  

17-02-2018 18:41 Босиком Скачать торрент  

Босиком / Po strnisti bosГод выпуска: 2017
Страна: Чехия, Словакия, Дания
Жанр: драма, комедия
Продолжительность: 01:50:42
Перевод: Любительский (многоголосый) ["Синема УС]
Субтитры: отсутствуют

Режиссер: Ян Сверак

rating

В ролях:

Ян Тршиска, Ольдржих Кайзер, Тереза Воржишкова, Ондржей Ветхи, Петра Шпалкова, Гинек Чермак, Зденек Сверак, Виера Павликова, Зузана Стивинова

Описание:

Во время немецкой оккупации семья Эды вынуждена переехать из Праги в деревню. Место, куда мальчик приезжал только на каникулы, становится его новым домом. Городская семья должна приспособиться к новой обстановке и совместной жизни с тётей и её близкими, среди которых и строгий дедушка. Перед Эдой стоит нелёгкая задача: найти и удержать своё место в компании деревенских мальчиков, чьи взгляды на мир кардинально отличаются.

Качество: WEB-DL 720p
Формат: MKV
Видео кодек: H.264

Видео: 4 117 Kb/s, 1280x540
Аудио#1: AC3, 2 ch, 384 Кбит/с

скриншот  скриншот  скриншот  

Общее
Уникальный идентификатор : 175444875353567000603749401586764909068 (0x83FD7433013D23B181F2492D54C88A0C)
Полное имя : D:\Po strnisti bos.2017.P.WEB-DL.72Op_KOSHARA.mkv
Формат : Matroska
Версия формата : Version 2
Размер файла : 3,48 Гбайт
Продолжительность : 1 ч. 50 м.
Режим общего битрейта : Переменный
Общий поток : 4503 Кбит/сек
Дата кодирования : UTC 2018-02-16 15:55:57
Программа кодирования : mkvmerge v8.3.0 ('Over the Horizon') 64bit
Библиотека кодирования : libebml v1.3.1 + libmatroska v1.4.2

Видео
Идентификатор : 1
Формат : AVC
Формат/Информация : Advanced Video Codec
Профиль формата : High@L4.1
Параметр CABAC формата : Да
Параметр ReFrames формата : 4 кадра
Идентификатор кодека : V_MPEG4/ISO/AVC
Продолжительность : 1 ч. 50 м.
Вид битрейта : Переменный
Битрейт : 4147 Кбит/сек
Максимальный битрейт : 4500 Кбит/сек
Ширина : 1280 пикселей
Высота : 540 пикселей
Соотношение сторон : 2,40:1
Режим частоты кадров : Постоянный
Частота кадров : 23,976 (24000/1001) кадра/сек
Стандарт вещания : Component
Цветовое пространство : YUV
Субдискретизация насыщенности : 4:2:0
Битовая глубина : 8 бит
Тип развёртки : Прогрессивная
Бит/(Пиксели*Кадры) : 0.243
Размер потока : 3,12 Гбайт (89%)
Default : Да
Forced : Нет
Цветовой диапазон : Limited
Основные цвета : BT.709
Характеристики трансфера : BT.709
Коэффициенты матрицы : BT.709

Аудио
Идентификатор : 2
Формат : AC-3
Формат/Информация : Audio Coding 3
Расширение режима : CM (complete main)
Параметр Endianness формата : Big
Идентификатор кодека : A_AC3
Продолжительность : 1 ч. 50 м.
Вид битрейта : Постоянный
Битрейт : 384 Кбит/сек
Каналы : 2 канала
Расположение каналов : Front: L R
Частота : 48,0 КГц
Частота кадров : 31,250 кадров/сек (1536 spf)
Метод сжатия : С потерями
Размер потока : 304 Мбайт (9%)
Default : Да
Forced : Нет

pb.wtf



Скачать Босиком через торрент http://img12.lostpic.net/2018/02/17/6dae268eeaae250773a7e724805ae7d2.jpg Скачать фильм Босиком через торрент бесплантно в хорошем качестве Описание: Во время немецкой оккупации семья Эды вынуждена переехать из Праги в деревню. Место, куда мальчик приезжал только на каникулы, ... 6.4 10 5
Торрент: Зарегистрирован [2018-02-17 18:41] · скачан: 33 раз
Статус: T временная
Размер: 3.48 GB
Как cкачать? Как скачать Босиком через торрент | qTorrent

% Раздел Тема Автор DL S | L
T Фильмы (мультфильмы) cо спонсором показа (Новинки AVI/MKV) [ 1.46 GB ] Босиком / Po strnisti bos [2017 WEB-DLRip] MVO ["Синема УС] bober100 Скачать
1 | 0

28-11-2019 20:33  

Отключить всю рекламу на сайте

    Дорогой пользователь! Огромная просьба, поблагодарите релизера, оцените раздачу и оставьте свои комментарий, если Вы скачали Босиком через торрент бесплатно! Внесите свою лепту в развитие PiratBit!
    Комментировать посты могут только пользователи прошедшие не сложную регистрацию
    Показать сообщения:    

    Босиком через торрент
    Скачать бесплатно Босиком
    Босиком скачать торрент
    Босиком смотреть онлайн
    Cкачать фильм Босиком бесплатно
    Босиком скачать торрент в хорошем качестве
    Босиком смотреть онлайн бесплатно в хорошем качестве


    Вы не можете начинать темы
    Вы не можете отвечать на сообщения
    Вы не можете редактировать свои сообщения
    Вы не можете удалять свои сообщения
    Вы не можете голосовать в опросах
    Вы не можете прикреплять файлы к сообщениям
    Вы можете скачивать файлы