Ссылка на приватное зеркало нашего сайта всего за 1$. Внимание количество ограничено!!!

2 сезон

iTunes

1 сезон

1

2 сезон

2 сезон

iTunes

1 сезон

RePack

30

Новинка

ВАЖНО

ИГРА 18+

pack

RePack

MK11
pack

Забери бонус

RePack

jed

!!Акция!!

Alien_Rage

RePack

fifa19

RePack

Assassins Creed: Odyssey

RePack

NEED FOR SPEED™ PAYBACK

4 сезон

9 сезон

Бесстыжие 9 сезон

Все сериалы

все сериалы на PB.wtf

RePack

FAR CRY 5
  

Травма / Trauma / Сезон: 1 / Серии 1-3 из 3 (Марк Эванс) [2018, Великобритания, драма, WEBRip 720p] MVO [BaibaKo] pb.wtf

Травма через торрент pb.wtf

Размер: 2.35 GB | Добавлен: 2 года 9 мес. назад | Торрент скачан:5 раз
Скачать  

18-02-2018 00:55 Травма Скачать торрент  

Травма / Trauma


  • Год выпуска: 2018
  • Страна: Великобритания, Tall Story Pictures
  • Жанр: драма
  • Продолжительность: ~ 00:10:00 (Серия)
  • Перевод: Профессиональный многоголосый [BaibaKo]
  • Режиссер: Марк Эванс
  • В ролях:
    Адриан Лестер, Джон Симм, Линдси Маршал, Джемайма Рупер, Джейд Аноука, Раффиелла Чепмен, Кэлвин Дин, Сэлли Скотт, Стивен Элдер, Хара Яннас, Шэрон Черри Баллард, Роуэна Кинг, Майкл Шэйффер, Надя Альбина, Ребекка Херод, Элби Марбер, Филлипа Пик, Дебора Рок, Пол Тонли, Катрин Скиннер и др.



  • В центре сюжета остросюжетной драмы «Травма», история двух отцов, чьи судьбы пересекаются из-за одного трагического случая. Жизнь менеджера Дэна Баукера, мужа и отца троих детей, рушится, когда его пятнадцатилетний сын с ножевым ранением попадает в травматологическое отделение одной из лондонских больниц. Спасением подростка занимался респектабельный и высокопоставленный хирург-консультант Джон Эллертон, отец восемнадцатилетней дочери Аланы. Однако спасти мальчика ему не удается, и он умер на операционном столе. Убитый горем Дэн, в смерти Алекса обвиняет врача. Он начинает свое расследование, которое затрагивает не только профессиональную, но и личную жизнь Джона, который оказывается в очень сложной ситуации.
  • Рейтинг:

    rating
  • Качество: WEBRip 720p
  • Формат: :MKV
  • Видео кодек: AVC
  • Аудио кодек: AC-3
  • Видео: 1668 Кбит/сек, 1280*720 (16:9), в 25,000 кадров/сек, AVC
  • Аудио №1: русский 384 Кбит/сек, 48,0 КГц, 16 бит, 2 канала, AC-3 |[BaibaKo]|
  • Аудио №1: английский 384 Кбит/сек, 48,0 КГц, 16 бит, 2 канала, AC-3
  • Релиз от: GEKADOL

    Внимание! Раздача ведётся путём добавления новых серий; при каждом добавлении создаётся новый торрент. Чтобы начать докачку новой серии, пользователям необходимо сделать следующее:
    (1) остановить скачивание,
    (2) удалить старый торрент у себя из клиента (старые серии удалять не надо),
    (3) скачать новый торрент и запустить его у себя в клиенте вместо старого, при этом указать клиенту путь в старую папку куда и должно происходить скачивание новых серий.
    Ваш клиент при этом должен произвести хеширование (проверку) старой папки (если не производит сам - помогите ему сделать это), и будет докачивать только те серии которых у вас ещё нет. Старые серии при этом не удаляются, а продолжают раздаваться!
    Eсли вы уже удалили старые серии, то предотвратить повторную закачку старых серий можно, отжав галочку в соответствующих местах при запуске нового торрента. По возможности, желательно не удалять старые серии как можно дольше чтобы релизёр не столько продолжал раздавать старые серии, а смог сконцентрироваться на новых.
    Общее
    Уникальный идентификатор : 17410550010343050997935625058155246787 (0xD192663DD68AFEF47A994762D0034C3)
    Полное имя : F:\Травма (Trauma)\Trauma.s01e01.HD720p.WEBRip.Rus.Eng.BaibaKo.mkv
    Формат : Matroska
    Версия формата : Version 4 / Version 2
    Размер файла : 788 Мбайт
    Продолжительность : 45 м. 12 с.
    Режим общего битрейта : Переменный
    Общий поток : 2438 Кбит/сек
    Дата кодирования : UTC 2018-02-17 03:59:06
    Программа кодирования : mkvmerge v20.0.0 ('I Am The Sun') 64-bit
    Библиотека кодирования : libebml v1.3.5 + libmatroska v1.4.8

    Видео
    Идентификатор : 1
    Формат : AVC
    Формат/Информация : Advanced Video Codec
    Профиль формата : High@L3.1
    Настройки формата : CABAC / 5 Ref Frames
    Параметр CABAC формата : Да
    Параметр RefFrames формата : 5 кадров
    Идентификатор кодека : V_MPEG4/ISO/AVC
    Продолжительность : 45 м. 12 с.
    Вид битрейта : Переменный
    Битрейт : 1668 Кбит/сек
    Максимальный битрейт : 4500 Кбит/сек
    Ширина : 1280 пикселей
    Высота : 720 пикселей
    Соотношение сторон : 16:9
    Режим частоты кадров : Постоянный
    Частота кадров : 25,000 кадров/сек
    Цветовое пространство : YUV
    Субдискретизация насыщенности : 4:2:0
    Битовая глубина : 8 бит
    Тип развёртки : Прогрессивная
    Бит/(Пиксели*Кадры) : 0.072
    Размер потока : 539 Мбайт (68%)
    Default : Нет
    Forced : Нет
    Цветовой диапазон : Limited
    Основные цвета : BT.709
    Характеристики трансфера : BT.709
    Коэффициенты матрицы : BT.709

    Аудио #1
    Идентификатор : 2
    Формат : AC-3
    Формат/Информация : Audio Coding 3
    Идентификатор кодека : A_AC3
    Продолжительность : 45 м. 12 с.
    Вид битрейта : Постоянный
    Битрейт : 384 Кбит/сек
    Каналы : 2 канала
    Расположение каналов : Front: L R
    Частота : 48,0 КГц
    Частота кадров : 31,250 кадров/сек (1536 SPF)
    Битовая глубина : 16 бит
    Метод сжатия : С потерями
    Задержка видео : 16 мс.
    Размер потока : 124 Мбайт (16%)
    Язык : Russian
    ServiceKind/String : Complete Main
    Default : Да
    Forced : Нет

    Аудио #2
    Идентификатор : 3
    Формат : AC-3
    Формат/Информация : Audio Coding 3
    Идентификатор кодека : A_AC3
    Продолжительность : 45 м. 12 с.
    Вид битрейта : Постоянный
    Битрейт : 384 Кбит/сек
    Каналы : 2 канала
    Расположение каналов : Front: L R
    Частота : 48,0 КГц
    Частота кадров : 31,250 кадров/сек (1536 SPF)
    Битовая глубина : 16 бит
    Метод сжатия : С потерями
    Задержка видео : 16 мс.
    Размер потока : 124 Мбайт (16%)
    Язык : English
    ServiceKind/String : Complete Main
    Default : Нет
    Forced : Нет



    Скриншоты:
    скриншот   скриншот   скриншот   скриншот   скриншот   скриншот   скриншот  
    скриншот  

    Раздача ведётся путём добавления новых серий. Добавлена 3 серия (19.02.2018).Просьба перекачать торрент файл.

    pb.wtf



  • Скачать Травма через торрент http://pic1.kartinco.top/images/11/ym4e3.jpg Скачать фильм Травма через торрент бесплантно в хорошем качестве qw.png В центре сюжета остросюжетной драмы «Травма», история двух отцов, чьи судьбы пересекаются из-за одного трагического случая. Жизнь ... 5.5 10 2
    Info! Золотая раздача, скачанное не засчитывается.
    Торрент: Зарегистрирован [2018-02-18 23:48] · скачан: 5 раз
    Статус: √ проверено
    Размер: 2.35 GB
    Как cкачать? Как скачать Травма через торрент | qTorrent

    28-11-2019 20:33  

    Отключить всю рекламу на сайте

      Дорогой пользователь! Огромная просьба, поблагодарите релизера, оцените раздачу и оставьте свои комментарий, если Вы скачали Травма через торрент бесплатно! Внесите свою лепту в развитие PiratBit!
      Комментировать посты могут только пользователи прошедшие не сложную регистрацию
      Показать сообщения:    

      Травма через торрент
      Скачать бесплатно Травма
      Травма скачать торрент
      Травма смотреть онлайн
      Cкачать фильм Травма бесплатно
      Травма скачать торрент в хорошем качестве
      Травма смотреть онлайн бесплатно в хорошем качестве


      Вы не можете начинать темы
      Вы не можете отвечать на сообщения
      Вы не можете редактировать свои сообщения
      Вы не можете удалять свои сообщения
      Вы не можете голосовать в опросах
      Вы не можете прикреплять файлы к сообщениям
      Вы можете скачивать файлы