Доктор Стрэндж

Лицензия

Добыча

MVO

Дом дракона

1 сезон

Тор

Лицензия

Мэверик

Лицензия

Там, где раки поют

MVO

Властелин колец

1 сезон

Ultimate

pack

Рекомендуем

30

Repack

ВАЖНО

ВАЖНО

Ghostwire

RePack

jed

RePack

nioh2

RePack

RDR2

RePack

NEED FOR SPEED™ PAYBACK

RePack

скачать торрент

Кинопоиск HD

Острые козырьки 6 сезон

6 сезон

FAR CRY 6

RePack

скачать торрент

Лицензия

скачать торрент

MVO

1

1 сезон

скачать торрент

1 сезон

скачать торрент

Лицензия

  

Парадокс Кловерфилда / The Cloverfield Paradox (Джулиус Она) [2018, фантастика, триллер, детектив, WEBRip] MVO [Jaskier]

Парадокс Кловерфилда через торрент pb.wtf

Размер: 1.46 GB | Добавлен: 4 года 7 мес. назад | Торрент скачан:192 раза
Смотреть онлайн Парадокс Кловерфилда | Скачать   

18-02-2018 15:14 Парадокс Кловерфилда Скачать торрент  

Парадокс Кловерфилда / The Cloverfield ParadoxГод выпуска: 2018
Страна: США
Жанр: фантастика, триллер, детектив
Продолжительность: 01:41:46
Перевод:Профессиональный (многоголосый, закадровый) - Jaskier
Субтитры: отсутствуют

Режиссер: Джулиус Она

rating

В ролях:

Гугу Эмбата-Ро, Дэвид Ойелоуо, Даниэль Брюль, Крис О’Дауд, Аксель Хенни, Чжан Цзыи, Элизабет Дебики, Роджер Дейвис, Джон Ортис,Джордан Ривера

Описание:

В то время как земной мир пребывает на грани войны за ресурсы, в космосе группа учёных проводит испытания устройства, которое способно решить проблему энергетического кризиса. Несколько неудачных попыток вводят учёных в отчаяние. Топлива осталось на три запуска, и когда вдруг происходит удачный запуск устройства, радость длится недолго — команде предстоит иметь дело с очень странными явлениями.

Качество: WEBRip
Формат: AVI

Видео: XviD, 1784 Кбит/с, 720x304
Аудио#1: Русский (МР3, 2 ch, 128 Кбит/с)
Аудио#2: английский (МР3, 2 ch, 128 Кбит/с)
скриншот  скриншот  скриншот  

Общее
Полное имя : C:\Users\Бобер\Desktop\The.Cloverfield.Paradox.2018.WEBRip.Jaskier.avi
Формат : AVI
Формат/Информация : Audio Video Interleave
Размер файла : 1,46 Гбайт
Продолжительность : 1 ч. 41 м.
Общий поток : 2054 Кбит/сек
Программа кодирования : VirtualDubMod 1.5.10.3 | www.virtualdub-fr.org || (build 2550/release)
Библиотека кодирования : VirtualDubMod build 2550/release

Видео
Идентификатор : 0
Формат : MPEG-4 Visual
Профиль формата : Advanced [email protected]
Параметр BVOP формата : 2
Параметр QPel формата : Нет
Параметр GMC формата : Без точки перехода
Параметр матрицы формата : Default (MPEG)
Идентификатор кодека : XVID
Идентификатор кодека/Подсказка : XviD
Продолжительность : 1 ч. 41 м.
Битрейт : 1784 Кбит/сек
Ширина : 720 пикселей
Высота : 304 пикселя
Соотношение сторон : 2,35:1
Частота кадров : 23,976 (24000/1001) кадра/сек
Цветовое пространство : YUV
Субдискретизация насыщенности : 4:2:0
Битовая глубина : 8 бит
Тип развёртки : Прогрессивная
Метод сжатия : С потерями
Бит/(Пиксели*Кадры) : 0.340
Размер потока : 1,27 Гбайт (87%)
Библиотека кодирования : XviD 1.2.1 (UTC 2008-12-04)

Аудио #1
Идентификатор : 1
Формат : MPEG Audio
Версия формата : Version 1
Профиль формата : Layer 3
Режим : Joint stereo
Расширение режима : MS Stereo
Идентификатор кодека : 55
Идентификатор кодека/Подсказка : MP3
Продолжительность : 1 ч. 41 м.
Вид битрейта : Постоянный
Битрейт : 128 Кбит/сек
Каналы : 2 канала
Частота : 48,0 КГц
Метод сжатия : С потерями
Размер потока : 93,2 Мбайт (6%)
Выравнивание : Соединение по промежуткам
Продолжительность промежутка : 42 мс. (1,00 видеокадр)
Время предзагрузки промежутка : 504 мс.
Библиотека кодирования : LAME3.100Є

Аудио #2
Идентификатор : 2
Формат : MPEG Audio
Версия формата : Version 1
Профиль формата : Layer 3
Режим : Joint stereo
Расширение режима : MS Stereo
Идентификатор кодека : 55
Идентификатор кодека/Подсказка : MP3
Продолжительность : 1 ч. 41 м.
Вид битрейта : Постоянный
Битрейт : 128 Кбит/сек
Каналы : 2 канала
Частота : 48,0 КГц
Метод сжатия : С потерями
Размер потока : 93,2 Мбайт (6%)
Выравнивание : Соединение по промежуткам
Продолжительность промежутка : 42 мс. (1,00 видеокадр)
Время предзагрузки промежутка : 504 мс.
Библиотека кодирования : LAME3.100Є
Kbober100 писал(а):


Есть аудио-реклама!



Скачать Парадокс Кловерфилда через торрент http://i3-imageban-ru.translate.goog/out/2018/02/06/2ad69ea043241acb4d1881ef435d1066.png Скачать, смотреть онлайн Парадокс Кловерфилда бесплантно в хорошем качестве Описание: В то время как земной мир пребывает на грани войны за ресурсы, в космосе группа учёных проводит испытания устройства, которое ... 10 10 4
Торрент: Зарегистрирован [2018-02-18 15:14] · скачан: 192 раз
Статус: T временная
Размер: 1.46 GB
Как cкачать? Как скачать Парадокс Кловерфилда через торрент | UTorrent

% Раздел Тема Автор DL S | L
Фильмы (HD 720p, 1080p) (48-60 fps) [ 15.3 GB ] Парадокс Кловерфилда / The Cloverfield Paradox | MVO | 1080p, 60 fps sheker187 Скачать
1 | 0
Фильмы (Blu-ray, BD-Remux, HDDVD) [ 22.81 GB ] Парадокс Кловерфилда / The Cloverfield Paradox | MVO | 1080p Леонид Ильич Скачать
1 | 0
Фильмы (WEB-DL 720p, 1080p) [ 8.43 GB ] Парадокс Кловерфилда | MVO | 1080p bober100 Скачать
1 | 0
Фильмы (WEB-DL 720p, 1080p) [ 8.39 GB ] Парадокс Кловерфилда | NewStudio | 1080p bober100 Скачать
1 | 0
Фильмы 2018 [DVDrip, WEB-DLRip, HDrip] (DUB, MVO) [ 1.46 GB ] Парадокс Кловерфилда / The Cloverfield Paradox | MVO | WEBRip-AVC sokol_ok Скачать
2 | 0
Фильмы 2018 [DVDrip, WEB-DLRip, HDrip] (DUB, MVO) [ 1.46 GB ] Парадокс Кловерфилда / The Cloverfield Paradox | NewStudio | WEBRip от Twi7ter Twi7ter Скачать
2 | 0
T Фильмы (мультфильмы) cо спонсором показа (Новинки AVI/MKV) [ 3.71 GB ] Парадокс Кловерфилда / The Cloverfield Paradox | Jaskier | 720p bober100 Скачать
1 | 0

28-11-2019 20:33  

Отключить вcю реклaмy на сайте

    Дорогой пользователь! Огромная просьба, поблагодарите релизера, оцените раздачу и оставьте свои комментарий, если Вы скачали Парадокс Кловерфилда через торрент бесплатно!!
    Комментировать посты могут только пользователи прошедшие не сложную регистрацию
    Показать сообщения:    


    Парадокс Кловерфилда через торрент
    Скачать бесплатно Парадокс Кловерфилда
    Парадокс Кловерфилда скачать торрент
    Парадокс Кловерфилда смотреть онлайн
    Cкачать фильм Парадокс Кловерфилда бесплатно
    Парадокс Кловерфилда скачать торрент в хорошем качестве
    Парадокс Кловерфилда смотреть онлайн бесплатно в хорошем качестве
    Вы не можете начинать темы
    Вы не можете отвечать на сообщения
    Вы не можете редактировать свои сообщения
    Вы не можете удалять свои сообщения
    Вы не можете голосовать в опросах
    Вы не можете прикреплять файлы к сообщениям
    Вы можете скачивать файлы