Ссылка на приватное зеркало всего за 1$. Внимание количество ограничено!!!

OK

1+1

iTunes

мы

OK

1

WEB-DLRip

Джокер

Пифагор

Ведьмак / The Witcher сериал

iTunes

ПШазам

ОК

Оно 2

iTunes

30
pack

Вам бонус

ВАЖНО

!!Акция!!

Alien_RageХит недели

RePack

Resident Evil 21

ИГРА 18+

pack

RePack

jed

RePack

fifa19

RePack

Assassins Creed: Odyssey

RePack

NEED FOR SPEED™ PAYBACK

4 сезон

9 сезон

Бесстыжие 9 сезон

Все сериалы

все сериалы на PB.wtf

RePack

FAR CRY 5
  

Парадокс Кловерфилда / The Cloverfield Paradox (Джулиус Она) [2018, фантастика, триллер, детектив, WEBRip 720p] MVO [Jaskier] pb.wtf

Парадокс Кловерфилда через торрент pb.wtf

Размер: 3.71 GB | Добавлен: 1 год 11 мес. назад | Торрент скачан:293 раза
Скачать  

18-02-2018 15:30 Парадокс Кловерфилда Скачать торрент  

Парадокс Кловерфилда / The Cloverfield ParadoxГод выпуска: 2018
Страна: США
Жанр: фантастика, триллер, детектив
Продолжительность: 01:42:26
Перевод:Профессиональный (многоголосый, закадровый) - Jaskier
Субтитры: отсутствуют

Режиссер: Джулиус Она

rating

В ролях:

Гугу Эмбата-Ро, Дэвид Ойелоуо, Даниэль Брюль, Крис О’Дауд, Аксель Хенни, Чжан Цзыи, Элизабет Дебики, Роджер Дейвис, Джон Ортис,Джордан Ривера

Описание:

В то время как земной мир пребывает на грани войны за ресурсы, в космосе группа учёных проводит испытания устройства, которое способно решить проблему энергетического кризиса. Несколько неудачных попыток вводят учёных в отчаяние. Топлива осталось на три запуска, и когда вдруг происходит удачный запуск устройства, радость длится недолго — команде предстоит иметь дело с очень странными явлениями.

Качество: WEBRip 720p
Формат: MKV

Видео: MPEG-4 AVC, 4389 Кбит/с, 1280x534
Аудио#1: Русский (AC3, 6 ch, 448 Кбит/с)
Аудио#2: английский (AC3, 6 ch, 448 Кбит/с)
скриншот  скриншот  скриншот  

Общее
Уникальный идентификатор : 280869798200426835179760177793940450584 (0xD34D8E341F4256F1B4111358E6C1ED18)
Полное имя : D:\The.Cloverfield.Paradox.2018.NF.WEBRip.720p.Jaskier.mkv
Формат : Matroska
Версия формата : Version 4 / Version 2
Размер файла : 3,71 Гбайт
Продолжительность : 1 ч. 41 м.
Общий поток : 5222 Кбит/сек
Дата кодирования : UTC 2018-02-18 12:10:25
Программа кодирования : mkvmerge v19.0.0 ('Brave Captain') 64-bit
Библиотека кодирования : libebml v1.3.5 + libmatroska v1.4.8

Видео
Идентификатор : 1
Формат : AVC
Формат/Информация : Advanced Video Codec
Профиль формата : High@L4.1
Параметр CABAC формата : Да
Параметр ReFrames формата : 12 кадров
Идентификатор кодека : V_MPEG4/ISO/AVC
Продолжительность : 1 ч. 41 м.
Битрейт : 4389 Кбит/сек
Ширина : 1280 пикселей
Высота : 534 пикселя
Соотношение сторон : 2,40:1
Режим частоты кадров : Постоянный
Частота кадров : 23,976 (24000/1001) кадра/сек
Цветовое пространство : YUV
Субдискретизация насыщенности : 4:2:0
Битовая глубина : 8 бит
Тип развёртки : Прогрессивная
Бит/(Пиксели*Кадры) : 0.258
Размер потока : 3,00 Гбайт (81%)
Библиотека кодирования : x264 core 148 r2744 b97ae06
Настройки программы : cabac=1 / ref=12 / deblock=1:-3:-3 / analyse=0x3:0x133 / me=umh / subme=10 / psy=1 / psy_rd=1.00:0.00 / mixed_ref=1 / me_range=48 / chroma_me=1 / trellis=2 / 8x8dct=1 / cqm=0 / deadzone=21,11 / fast_pskip=0 / chroma_qp_offset=-2 / threads=12 / lookahead_threads=2 / sliced_threads=0 / nr=0 / decimate=0 / interlaced=0 / bluray_compat=0 / constrained_intra=0 / bframes=9 / b_pyramid=0 / b_adapt=2 / b_bias=0 / direct=3 / weightb=1 / open_gop=0 / weightp=2 / keyint=240 / keyint_min=23 / scenecut=40 / intra_refresh=0 / rc_lookahead=60 / rc=crf / mbtree=0 / crf=17.5 / qcomp=0.60 / qpmin=10 / qpmax=51 / qpstep=4 / vbv_maxrate=62500 / vbv_bufsize=78125 / crf_max=0.0 / nal_hrd=none / filler=0 / ip_ratio=1.40 / pb_ratio=1.30 / aq=3:0.70
Default : Да
Forced : Нет

Аудио #1
Идентификатор : 2
Формат : AC-3
Формат/Информация : Audio Coding 3
Расширение режима : CM (complete main)
Параметр Endianness формата : Big
Идентификатор кодека : A_AC3
Продолжительность : 1 ч. 41 м.
Вид битрейта : Постоянный
Битрейт : 448 Кбит/сек
Каналы : 6 каналов
Расположение каналов : Front: L C R, Side: L R, LFE
Частота : 48,0 КГц
Частота кадров : 31,250 кадров/сек (1536 spf)
Метод сжатия : С потерями
Размер потока : 326 Мбайт (9%)
Default : Нет
Forced : Нет

Аудио #2
Идентификатор : 3
Формат : E-AC-3
Формат/Информация : Audio Coding 3
Параметр Endianness формата : Big
Идентификатор кодека : A_EAC3
Продолжительность : 1 ч. 41 м.
Вид битрейта : Постоянный
Битрейт : 448 Кбит/сек
Каналы : 6 каналов
Расположение каналов : Front: L C R, Side: L R, LFE
Частота : 48,0 КГц
Частота кадров : 187,500 кадров/сек (256 spf)
Метод сжатия : С потерями
Размер потока : 326 Мбайт (9%)
Язык : English
Default : Нет
Forced : Нет

pb.wtf
Kbober100 писал(а):

Есть аудио-реклама!



Скачать Парадокс Кловерфилда через торрент http://i3.imageban.ru/out/2018/02/06/2ad69ea043241acb4d1881ef435d1066.png Скачать фильм Парадокс Кловерфилда через торрент бесплантно в хорошем качестве Описание: В то время как земной мир пребывает на грани войны за ресурсы, в космосе группа учёных проводит испытания устройства, которое ... 8.9 10 8
Торрент: Зарегистрирован [2018-02-18 15:30] · скачан: 293 раз
Статус: T временная
Размер: 3.71 GB
Как cкачать? Как скачать Парадокс Кловерфилда через торрент | qTorrent

% Раздел Тема Автор DL S | L
Фильмы (HD 720p, 1080p) (48-60 fps) [ 15.3 GB ] Парадокс Кловерфилда / The Cloverfield Paradox [2018 BDRip 1080p 60 fps] 3xMVO sheker187 Скачать
1 | 0
Фильмы (Blu-ray, BD-Remux, HDDVD) [ 22.81 GB ] Парадокс Кловерфилда / The Cloverfield Paradox [2018 Blu-Ray Remux 1080p] 3xMVO Леонид Ильич Скачать
1 | 0
Фильмы 2018 [DVDrip, WEB-DLRip, HDrip] (DUB, MVO) [ 1.46 GB ] Парадокс Кловерфилда / The Cloverfield Paradox [2018 WEBRip-AVC] MVO sokol_ok Скачать
2 | 0
Фильмы 2018 [DVDrip, WEB-DLRip, HDrip] (DUB, MVO) [ 1.46 GB ] Парадокс Кловерфилда / The Cloverfield Paradox [2018 WEBRip] MVO [NewStudio] Twi7ter Скачать
3 | 0
T Фильмы (мультфильмы) cо спонсором показа (Новинки AVI/MKV) [ 8.11 GB ] Парадокс Кловерфилда / The Cloverfield Paradox [2018 WEBRip 1080p] MVO [Jaskier] bober100 Скачать
1 | 0
T Фильмы (мультфильмы) cо спонсором показа (Новинки AVI/MKV) [ 1.46 GB ] Парадокс Кловерфилда / The Cloverfield Paradox [2018 WEBRip] MVO [Jaskier] bober100 Скачать
1 | 0
Фильмы 2018 [DVDrip, WEB-DLRip, HDrip] (DUB, MVO) [ 746 MB ] Парадокс Кловерфилда / The Cloverfield Paradox [2018 WEBRip-AVC] MVO sokol_ok Скачать
2 | 0

28-11-2019 20:33  

Отключить всю рекламу на сайте


    Дорогой пользователь! Огромная просьба, поблагодарите релизера, оцените раздачу и оставьте свои комментарий, если Вы скачали Парадокс Кловерфилда через торрент бесплатно! Внесите свою лепту в развитие PiratBit!
    Комментировать посты могут только пользователи прошедшие не сложную регистрацию
    Показать сообщения:    

    Парадокс Кловерфилда через торрент
    Скачать бесплатно Парадокс Кловерфилда
    Парадокс Кловерфилда скачать торрент
    Парадокс Кловерфилда смотреть онлайн
    Cкачать фильм Парадокс Кловерфилда бесплатно
    Парадокс Кловерфилда скачать торрент в хорошем качестве
    Парадокс Кловерфилда смотреть онлайн бесплатно в хорошем качестве


    Вы не можете начинать темы
    Вы не можете отвечать на сообщения
    Вы не можете редактировать свои сообщения
    Вы не можете удалять свои сообщения
    Вы не можете голосовать в опросах
    Вы не можете прикреплять файлы к сообщениям
    Вы можете скачивать файлы