MEGA SALE -75% Borderlands 3 Super Deluxe всего за 550р. 180 руб. (супер цена). Внимание количество ограничено!!!

iTunes

1+1

iTunes

мы

iTunes

1

iTunes

Чернобыль

iTunes

Ральф против интернета

Лицензия

ПШазам

Лицензия

Игра престолов

Лицензия

30
pack

ВАЖНО

!!Акция!!

Alien_RageХит недели

RePack

Resident Evil 21

ИГРА 18+

pack

RePack

Metro:Exodus

!!Акция!!

Alien_Rage

RePack

fifa19

RePack

Assassins Creed: Odyssey

RePack

NEED FOR SPEED™ PAYBACK

3 сезон

9 сезон

Бесстыжие 9 сезон

Все сериалы

все сериалы на PB.wtf

RePack

FAR CRY 5
Ребята, катастрофически не хватает 1900р. для оплаты серверов за АВГУСТ (всвязи с блокировками трафик упал в 3 раза), 1-2р., выручайте.
  

Пепел и алмаз / Popiól i diament (Анджей Вайда) [1958 г., драма, мелодрама, военный, BDRip] DUB, MVO pb.wtf

Пепел и алмаз через торрент pb.wtf

Размер: 1.45 GB | Добавлен: 1 год 7 мес. назад | Торрент скачан:7 раз
Скачать  

18-02-2018 16:12 Пепел и алмаз Скачать торрент  

Пепел и алмаз / Popiól i diament
Год выпуска: 1958
Страна: Польша
Жанр: драма, мелодрама, военный
Продолжительность: 01:42:42
Перевод: Дублированный, профессиональный многоголосый

Режиссер: Анджей Вайда

rating

В ролях: Збигнев Цибульский, Эва Кшижевска, Вацлав Застшежиньский, Адам Павликовский, Богумил Кобеля, Ян Чечерский, Станислав Мильский, Артур Млодницкий, Халина Квятковска, Игнацы Маховский, Збигнев Сковроньский, Барбара Крафтувна, Александр Севрук, Зофия Червиньска, Виктор Гротович, Ирена Орзецкая, Мечислав Лоза, Тадеуш Калиновский, Гражина Станишевска, Фердинанд Матысик

Описание: 1945 год, весна, последние дни Второй Мировой войны. Победа ощутимо близка, поляки, прежде объедененные общим врагом и общей бедой, теперь из политических соображений убивают друг друга. Страна на грани гражданского противостояния. Польша стала «советской территорией». Бывший студент Мацек опытный и отважный боец Сопротивления, теперь получил особое задание — ликвидировать одного высокопоставленного коммуниста. По ошибке Мацек и его командир становятся виновниками гибели не партийного деятеля, а двух простых рабочих. Теперь герои вынуждены скрываться в своей стране…

Качество: BDRip (POPIOL_I_DIAMENT / Blu-Ray Remux)
Формат: AVI
Видео: XviD, 1623 Кбит/с, 704x432, 23.976 Кадр/с
Аудио #1: AC3, 2 ch, 192 Кбит/с | Дублированный (cоветский дубляж)
Аудио #2: AC3, 2 ch, 192 Кбит/с | Профессиональный многоголосый
Релиз от: Koenig
скриншот   скриншот   скриншот   скриншот   скриншот   скриншот  

Общее
Полное имя : Ashes.and.Diamonds.1958.BDRip.avi
Формат : AVI
Формат/Информация : Audio Video Interleave
Размер файла : 1,45 Гбайт
Продолжительность : 1 ч. 42 м.
Общий поток : 2021 Кбит/сек
Программа кодирования : VirtualDubMod 1.5.10.2 (build 2540/release)
Библиотека кодирования : VirtualDubMod build 2540/release

Видео
Идентификатор : 0
Формат : MPEG-4 Visual
Профиль формата : Advanced Simple@L5
Параметр BVOP формата : 1
Параметр QPel формата : Нет
Параметр GMC формата : Без точки перехода
Параметр матрицы формата : Выборочная
Идентификатор кодека : XVID
Идентификатор кодека/Подсказка : XviD
Продолжительность : 1 ч. 42 м.
Битрейт : 1623 Кбит/сек
Ширина : 704 пикселя
Высота : 432 пикселя
Соотношение сторон : 16:10
Частота кадров : 23,976 (24000/1001) кадра/сек
Цветовое пространство : YUV
Субдискретизация насыщенности : 4:2:0
Битовая глубина : 8 бит
Тип развёртки : Прогрессивная
Метод сжатия : С потерями
Бит/(Пиксели*Кадры) : 0.223
Размер потока : 1,16 Гбайт (80%)
Библиотека кодирования : XviD 65

Аудио #1
Идентификатор : 1
Формат : AC-3
Формат/Информация : Audio Coding 3
Параметр Endianness формата : Big
Идентификатор кодека : 2000
Продолжительность : 1 ч. 42 м.
Вид битрейта : Постоянный
Битрейт : 192 Кбит/сек
Каналы : 2 канала
Расположение каналов : Front: L R
Частота : 48,0 КГц
Частота кадров : 31,250 кадров/сек (1536 spf)
Битовая глубина : 16 бит
Метод сжатия : С потерями
Размер потока : 141 Мбайт (9%)
Выравнивание : Разделение по промежуткам
Продолжительность промежутка : 42 мс. (1,00 видеокадр)
Время предзагрузки промежутка : 500 мс.
ServiceKind/String : Complete Main

Аудио #2
Идентификатор : 2
Формат : AC-3
Формат/Информация : Audio Coding 3
Параметр Endianness формата : Big
Идентификатор кодека : 2000
Продолжительность : 1 ч. 42 м.
Вид битрейта : Постоянный
Битрейт : 192 Кбит/сек
Каналы : 2 канала
Расположение каналов : Front: L R
Частота : 48,0 КГц
Частота кадров : 31,250 кадров/сек (1536 spf)
Битовая глубина : 16 бит
Метод сжатия : С потерями
Размер потока : 141 Мбайт (9%)
Выравнивание : Разделение по промежуткам
Продолжительность промежутка : 42 мс. (1,00 видеокадр)
Время предзагрузки промежутка : 500 мс.
ServiceKind/String : Complete Main

pb.wtf



Скачать Пепел и алмаз через торрент http://img12.lostpic.net/2018/02/18/9978897f39db22d268d7b5e01c701924.jpg Скачать фильм Пепел и алмаз через торрент бесплантно в хорошем качестве Описание: 1945 год, весна, последние дни Второй Мировой войны. Победа ощутимо близка, поляки, прежде объедененные общим врагом и общей ... 5 10 1
Info! Золотая раздача, скачанное не засчитывается.
Торрент: Зарегистрирован [2018-02-18 16:12] · скачан: 7 раз
Статус: √ проверено
Размер: 1.45 GB
Как cкачать? Как скачать Пепел и алмаз через торрент | qTorrent


>> Регистрируемся здесь <<






Отзывы и комментарии о схеме читаем и пишем здесь: ---> Отзывы и комментарии о схеме

Новые благодарочки в телеграм довольных пользователей:
скриншот   скриншот   скриншот   скриншот   скриншот
    Дорогой пользователь! Огромная просьба, поблагодарите релизера, оцените раздачу и оставьте свои комментарий, если Вы скачали Пепел и алмаз через торрент бесплатно! Внесите свою лепту в развитие PiratBit!
    Комментировать посты могут только пользователи прошедшие не сложную регистрацию
    Показать сообщения:    

    Пепел и алмаз через торрент
    Скачать бесплатно Пепел и алмаз
    Пепел и алмаз скачать торрент
    Пепел и алмаз смотреть онлайн
    Cкачать фильм Пепел и алмаз бесплатно
    Пепел и алмаз скачать торрент в хорошем качестве
    Пепел и алмаз смотреть онлайн бесплатно в хорошем качестве


    Вы не можете начинать темы
    Вы не можете отвечать на сообщения
    Вы не можете редактировать свои сообщения
    Вы не можете удалять свои сообщения
    Вы не можете голосовать в опросах
    Вы не можете прикреплять файлы к сообщениям
    Вы можете скачивать файлы