Ссылка на приватное зеркало всего за 1$. Внимание количество ограничено!!!

OK

1+1

iTunes

мы

OK

1

WEB-DLRip

Джокер

Пифагор

Ведьмак / The Witcher сериал

iTunes

ПШазам

ОК

Оно 2

iTunes

30
pack

Вам бонус

ВАЖНО

!!Акция!!

Alien_RageХит недели

RePack

Resident Evil 21

ИГРА 18+

pack

RePack

jed

RePack

fifa19

RePack

Assassins Creed: Odyssey

RePack

NEED FOR SPEED™ PAYBACK

4 сезон

9 сезон

Бесстыжие 9 сезон

Все сериалы

все сериалы на PB.wtf

RePack

FAR CRY 5
  

Рождественский обмен / The Christmas Swap (Джерри ЛаМоте) [2016, семейный, HDTVRip 720p] MVO ["Синема УС] pb.wtf

Рождественский обмен через торрент pb.wtf

Размер: 2.55 GB | Добавлен: 1 год 11 мес. назад | Торрент скачан:32 раза
Скачать  

18-02-2018 18:45 Рождественский обмен Скачать торрент  

Рождественский обмен / The Christmas SwapГод выпуска: 2016
Страна: США
Жанр: семейный
Продолжительность: 01:22:57
Перевод: Любительский (многоголосый) ["Синема УС]
Субтитры: отсутствуют

Режиссер: Джерри ЛаМоте

rating

В ролях:

Дондре Уитфилд, Кристиан Кейс, Стелла Дойл, Диалло Томпсон, Дельпане Уиллс, Крис Уитл

Описание:

Не зря говорят - рождественские желания всегда сбываются, в чем и убедились два брата, когда под Рождество волшебным образом они поменялись телами. Поможет ли им это праздничное чудо навести порядок в жизнях друг друга, и смогут ли они вернуться назад?

Качество: HDTVRip 720p
Формат: MKV
Видео кодек: H.264
Аудио кодек: AC3

Видео: 4009 kb/s, 1280x720
Аудио#1: Русский, (AC3, 2 ch, 384 Кбит/с)

скриншот  скриншот  скриншот  

Общее
Уникальный идентификатор : 180596021289545111823041250884720255130 (0x87DD874D572D8D7388FE9B359D47E09A)
Полное имя : D:\Еhe.christmas.swap.2016.P.HDTV.72Op_KOSHARA.mkv
Формат : Matroska
Версия формата : Version 2
Размер файла : 2,55 Гбайт
Продолжительность : 1 ч. 22 м.
Режим общего битрейта : Переменный
Общий поток : 4395 Кбит/сек
Дата кодирования : UTC 2018-02-17 17:47:06
Программа кодирования : mkvmerge v8.3.0 ('Over the Horizon') 64bit
Библиотека кодирования : libebml v1.3.1 + libmatroska v1.4.2

Видео
Идентификатор : 1
Формат : AVC
Формат/Информация : Advanced Video Codec
Профиль формата : High@L4.1
Параметр CABAC формата : Да
Параметр ReFrames формата : 4 кадра
Идентификатор кодека : V_MPEG4/ISO/AVC
Продолжительность : 1 ч. 22 м.
Вид битрейта : Переменный
Битрейт : 4009 Кбит/сек
Максимальный битрейт : 4500 Кбит/сек
Ширина : 1280 пикселей
Высота : 720 пикселей
Соотношение сторон : 16:9
Режим частоты кадров : Постоянный
Частота кадров : 23,976 (24000/1001) кадра/сек
Стандарт вещания : Component
Цветовое пространство : YUV
Субдискретизация насыщенности : 4:2:0
Битовая глубина : 8 бит
Тип развёртки : Прогрессивная
Бит/(Пиксели*Кадры) : 0.178
Размер потока : 2,27 Гбайт (89%)
Default : Да
Forced : Нет
Цветовой диапазон : Limited
Основные цвета : BT.709
Характеристики трансфера : BT.709
Коэффициенты матрицы : BT.709

Аудио
Идентификатор : 2
Формат : AC-3
Формат/Информация : Audio Coding 3
Расширение режима : CM (complete main)
Параметр Endianness формата : Big
Идентификатор кодека : A_AC3
Продолжительность : 1 ч. 22 м.
Вид битрейта : Постоянный
Битрейт : 384 Кбит/сек
Каналы : 2 канала
Расположение каналов : Front: L R
Частота : 48,0 КГц
Частота кадров : 31,250 кадров/сек (1536 spf)
Метод сжатия : С потерями
Размер потока : 228 Мбайт (9%)
Default : Да
Forced : Нет

pb.wtf



Скачать Рождественский обмен через торрент http://img12.lostpic.net/2018/02/18/164ed4108355571ef46b53787e717697.jpg Скачать фильм Рождественский обмен через торрент бесплантно в хорошем качестве Описание: Не зря говорят - рождественские желания всегда сбываются, в чем и убедились два брата, когда под Рождество волшебным образом они ... 7 10 3
Торрент: Зарегистрирован [2018-02-18 18:45] · скачан: 32 раз
Статус: T временная
Размер: 2.55 GB
Как cкачать? Как скачать Рождественский обмен через торрент | qTorrent

% Раздел Тема Автор DL S | L
T Фильмы (мультфильмы) cо спонсором показа (Новинки AVI/MKV) [ 1.37 GB ] Рождественский обмен / The Christmas Swap [2016 HDTVRip] MVO ["Синема УС] bober100 Скачать
1 | 0

28-11-2019 20:33  

Отключить всю рекламу на сайте

    Дорогой пользователь! Огромная просьба, поблагодарите релизера, оцените раздачу и оставьте свои комментарий, если Вы скачали Рождественский обмен через торрент бесплатно! Внесите свою лепту в развитие PiratBit!
    Комментировать посты могут только пользователи прошедшие не сложную регистрацию
    Показать сообщения:    

    Рождественский обмен через торрент
    Скачать бесплатно Рождественский обмен
    Рождественский обмен скачать торрент
    Рождественский обмен смотреть онлайн
    Cкачать фильм Рождественский обмен бесплатно
    Рождественский обмен скачать торрент в хорошем качестве
    Рождественский обмен смотреть онлайн бесплатно в хорошем качестве


    Вы не можете начинать темы
    Вы не можете отвечать на сообщения
    Вы не можете редактировать свои сообщения
    Вы не можете удалять свои сообщения
    Вы не можете голосовать в опросах
    Вы не можете прикреплять файлы к сообщениям
    Вы можете скачивать файлы