Ссылка на приватное зеркало всего за 1$. Внимание количество ограничено!!!

OK

1+1

iTunes

мы

OK

1

WEB-DLRip

Джокер

Пифагор

Ведьмак / The Witcher сериал

Лицензия

ПШазам

ОК

Оно 2

iTunes

30
pack

Вам бонус

ВАЖНО

!!Акция!!

Alien_RageХит недели

RePack

Resident Evil 21

ИГРА 18+

pack

RePack

jed

!!Акция!!

Alien_Rage

RePack

fifa19

RePack

Assassins Creed: Odyssey

RePack

NEED FOR SPEED™ PAYBACK

4 сезон

9 сезон

Бесстыжие 9 сезон

Все сериалы

все сериалы на PB.wtf

RePack

FAR CRY 5
  

История Розы Паркс / Behind the Movement (Арик Авелино) [2018, драма, HDTVRip 720p] MVO ["Синема УС] pb.wtf

История Розы Паркс через торрент pb.wtf

Размер: 2.56 GB | Добавлен: 1 год 11 мес. назад | Торрент скачан:23 раза
Скачать  

18-02-2018 18:57 История Розы Паркс Скачать торрент  

История Розы Паркс / Behind the MovementГод выпуска: 2018
Страна: США
Жанр: драма
Продолжительность: 01:24:16
Перевод: Любительский (многоголосый) ["Синема УС]
Субтитры: отсутствуют

Режиссер: Арик Авелино

rating

В ролях:

Мета Голдинг, Роджер Гуэнвёр Смит, Исайя Вашингтон, Эл Митчелл, Лашон Клэй, Кит А. Болден, Лоретта Дивайн, Андреа Фрай, Тиффани Морган

Описание:

История о борьбе чернокожего населения города Монтгомери за свои права, начавшаяся с отказа Розы Паркс уступить место в автобусе белому пассажиру-мужчине. Из-за этого "возмутительного" отказа её арестовывают, что провоцирует акцию протеста, известную как "Бойкот автобусных линий в Монтгомери", главной целью которой была отмена дискриминационных мер в общественном транспорте.

Качество: HDTVRip 720p
Формат: MKV
Видео кодек: H.264
Аудио кодек: AC3

Видео: 4009 kb/s, 1280x720
Аудио#1: Русский, (AC3, 2 ch, 384 Кбит/с)

скриншот  скриншот  скриншот  

Общее
Уникальный идентификатор : 180596021289545111823041250884720255130 (0x87DD874D572D8D7388FE9B359D47E09A)
Полное имя : D:\Еhe.christmas.swap.2016.P.HDTV.72Op_KOSHARA.mkv
Формат : Matroska
Версия формата : Version 2
Размер файла : 2,55 Гбайт
Продолжительность : 1 ч. 22 м.
Режим общего битрейта : Переменный
Общий поток : 4395 Кбит/сек
Дата кодирования : UTC 2018-02-17 17:47:06
Программа кодирования : mkvmerge v8.3.0 ('Over the Horizon') 64bit
Библиотека кодирования : libebml v1.3.1 + libmatroska v1.4.2

Видео
Идентификатор : 1
Формат : AVC
Формат/Информация : Advanced Video Codec
Профиль формата : High@L4.1
Параметр CABAC формата : Да
Параметр ReFrames формата : 4 кадра
Идентификатор кодека : V_MPEG4/ISO/AVC
Продолжительность : 1 ч. 22 м.
Вид битрейта : Переменный
Битрейт : 4009 Кбит/сек
Максимальный битрейт : 4500 Кбит/сек
Ширина : 1280 пикселей
Высота : 720 пикселей
Соотношение сторон : 16:9
Режим частоты кадров : Постоянный
Частота кадров : 23,976 (24000/1001) кадра/сек
Стандарт вещания : Component
Цветовое пространство : YUV
Субдискретизация насыщенности : 4:2:0
Битовая глубина : 8 бит
Тип развёртки : Прогрессивная
Бит/(Пиксели*Кадры) : 0.178
Размер потока : 2,27 Гбайт (89%)
Default : Да
Forced : Нет
Цветовой диапазон : Limited
Основные цвета : BT.709
Характеристики трансфера : BT.709
Коэффициенты матрицы : BT.709

Аудио
Идентификатор : 2
Формат : AC-3
Формат/Информация : Audio Coding 3
Расширение режима : CM (complete main)
Параметр Endianness формата : Big
Идентификатор кодека : A_AC3
Продолжительность : 1 ч. 22 м.
Вид битрейта : Постоянный
Битрейт : 384 Кбит/сек
Каналы : 2 канала
Расположение каналов : Front: L R
Частота : 48,0 КГц
Частота кадров : 31,250 кадров/сек (1536 spf)
Метод сжатия : С потерями
Размер потока : 228 Мбайт (9%)
Default : Да
Forced : Нет

pb.wtf



Скачать История Розы Паркс через торрент http://img12.lostpic.net/2018/02/18/e6ca61a95777cfa5657a7ed6a7b9d40a.jpg Скачать фильм История Розы Паркс через торрент бесплантно в хорошем качестве Описание: История о борьбе чернокожего населения города Монтгомери за свои права, начавшаяся с отказа Розы Паркс уступить место в автобусе ... 10 10 2
Торрент: Зарегистрирован [2018-02-18 18:57] · скачан: 23 раз
Статус: T временная
Размер: 2.56 GB
Как cкачать? Как скачать История Розы Паркс через торрент | qTorrent

% Раздел Тема Автор DL S | L
T Фильмы (мультфильмы) cо спонсором показа (Новинки AVI/MKV) [ 1.37 GB ] История Розы Паркс / Behind the Movement [2018 HDTVRip] MVO ["Синема УС] bober100 Скачать
1 | 0

28-11-2019 20:33  

Отключить всю рекламу на сайте

    Дорогой пользователь! Огромная просьба, поблагодарите релизера, оцените раздачу и оставьте свои комментарий, если Вы скачали История Розы Паркс через торрент бесплатно! Внесите свою лепту в развитие PiratBit!
    Комментировать посты могут только пользователи прошедшие не сложную регистрацию
    Показать сообщения:    

    История Розы Паркс через торрент
    Скачать бесплатно История Розы Паркс
    История Розы Паркс скачать торрент
    История Розы Паркс смотреть онлайн
    Cкачать фильм История Розы Паркс бесплатно
    История Розы Паркс скачать торрент в хорошем качестве
    История Розы Паркс смотреть онлайн бесплатно в хорошем качестве


    Вы не можете начинать темы
    Вы не можете отвечать на сообщения
    Вы не можете редактировать свои сообщения
    Вы не можете удалять свои сообщения
    Вы не можете голосовать в опросах
    Вы не можете прикреплять файлы к сообщениям
    Вы можете скачивать файлы