Доктор Стрэндж

Лицензия

Добыча

MVO

Дом дракона

1 сезон

Тор

Лицензия

Мэверик

Лицензия

Там, где раки поют

MVO

Властелин колец

1 сезон

Ultimate

pack

Рекомендуем

30

Repack

ВАЖНО

ВАЖНО

Ghostwire

RePack

jed

RePack

nioh2

RePack

RDR2

RePack

NEED FOR SPEED™ PAYBACK

RePack

скачать торрент

Кинопоиск HD

Острые козырьки 6 сезон

6 сезон

FAR CRY 6

RePack

скачать торрент

Лицензия

скачать торрент

MVO

1

1 сезон

скачать торрент

1 сезон

скачать торрент

Лицензия

  

Вторжение пришельцев: S.U.M.1 / Alien Invasion: S.U.M.1 (Кристиан Паскариолло) [2017, фантастика, BDRip 720p] MVO ["Синема УС]

Вторжение пришельцев: S.U.M.1 через торрент pb.wtf

Размер: 4.26 GB | Добавлен: 4 года 7 мес. назад | Торрент скачан:122 раза
Смотреть онлайн Вторжение пришельцев: S.U.M.1 | Скачать   

18-02-2018 20:55 Вторжение пришельцев: S.U.M.1 Скачать торрент  

Вторжение пришельцев: S.U.M.1 / Alien Invasion: S.U.M.1Год выпуска: 2017
Страна: Германия
Жанр: фантастика
Продолжительность: 01:36:21
Перевод: Любительский (многоголосый) ["Синема УС]
Субтитры: отсутствуют

Режиссер: Кристиан Паскариолло

rating

В ролях:

Иван Реон, Андре Хеннике, Нильс-Бруно Шмидт

Описание:

Раса агрессивных пришельцев напала на планету Земля, оставшиеся в живых после вторжения люди скрываются в гигантском бункере под землей, не выходя на поверхность. Молодой солдат S.U.M.1 отправляется на миссию по спасению группы выживших, но не сумевших добраться до убежища.

Качество: BDRip 720p
Формат: MKV
Видео кодек: H.264
Аудио кодек: AC3

Видео: 5882 Кбит/с, 1280x538
Аудио#1: Русский, (AC3, 2 ch, 448 Кбит/с)

скриншот  скриншот  скриншот  

Общее
Уникальный идентификатор : 217970965916928092554689367496961851904 (0xA3FBAE57C313B27DA88A47C748048200)
Полное имя : D:\Alien.Invasion.S.U.M.1.2017.P.BDRip.72Op_KOSHARA.mkv
Формат : Matroska
Версия формата : Version 2
Размер файла : 4,26 Гбайт
Продолжительность : 1 ч. 36 м.
Режим общего битрейта : Переменный
Общий поток : 6332 Кбит/сек
Дата кодирования : UTC 2018-02-18 16:16:17
Программа кодирования : mkvmerge v8.3.0 ('Over the Horizon') 64bit
Библиотека кодирования : libebml v1.3.1 + libmatroska v1.4.2

Видео
Идентификатор : 1
Формат : AVC
Формат/Информация : Advanced Video Codec
Профиль формата : [email protected]
Параметр CABAC формата : Да
Параметр ReFrames формата : 4 кадра
Идентификатор кодека : V_MPEG4/ISO/AVC
Продолжительность : 1 ч. 36 м.
Вид битрейта : Переменный
Битрейт : 5882 Кбит/сек
Максимальный битрейт : 6600 Кбит/сек
Ширина : 1280 пикселей
Высота : 538 пикселей
Соотношение сторон : 2,40:1
Режим частоты кадров : Постоянный
Частота кадров : 23,976 (24000/1001) кадра/сек
Стандарт вещания : Component
Цветовое пространство : YUV
Субдискретизация насыщенности : 4:2:0
Битовая глубина : 8 бит
Тип развёртки : Прогрессивная
Бит/(Пиксели*Кадры) : 0.349
Размер потока : 3,88 Гбайт (91%)
Default : Да
Forced : Нет
Цветовой диапазон : Limited
Основные цвета : BT.709
Характеристики трансфера : BT.709
Коэффициенты матрицы : BT.709

Аудио
Идентификатор : 2
Формат : AC-3
Формат/Информация : Audio Coding 3
Расширение режима : CM (complete main)
Параметр Endianness формата : Big
Идентификатор кодека : A_AC3
Продолжительность : 1 ч. 36 м.
Вид битрейта : Постоянный
Битрейт : 448 Кбит/сек
Каналы : 2 канала
Расположение каналов : Front: L R
Частота : 48,0 КГц
Частота кадров : 31,250 кадров/сек (1536 spf)
Метод сжатия : С потерями
Размер потока : 309 Мбайт (7%)
Default : Да
Forced : Нет



Скачать Вторжение пришельцев: S.U.M.1 через торрент http://img12.lostpic.net/2018/02/18/53bc67e88bb704d904ca477396beb585.jpg Скачать, смотреть онлайн Вторжение пришельцев: S.U.M.1 бесплантно в хорошем качестве Описание: Раса агрессивных пришельцев напала на планету Земля, оставшиеся в живых после вторжения люди скрываются в гигантском бункере под ... 6.6 10 8
Торрент: Зарегистрирован [2018-02-18 20:55] · скачан: 122 раз
Статус: # сомнительно
Размер: 4.26 GB
Как cкачать? Как скачать Вторжение пришельцев: S.U.M.1 через торрент | UTorrent

% Раздел Тема Автор DL S | L
T Фильмы (мультфильмы) cо спонсором показа (Новинки AVI/MKV) [ 1.37 GB ] Вторжение пришельцев: S.U.M.1 / Alien Invasion: S.U.M.1 | MVO | HDRip bober100 Скачать
1 | 0

28-11-2019 20:33  

Отключить вcю реклaмy на сайте

18-02-2018 21:36 Вторжение пришельцев: S.U.M.1 Скачать торрент  

Рамси Болтон восстал из мертвых...



18-02-2018 23:02 Вторжение пришельцев: S.U.M.1 Скачать торрент  

Жаль что он начал в Треше сниматься



18-02-2018 23:41 Вторжение пришельцев: S.U.M.1 Скачать торрент  

А как хорошо в Отбросах начинал. Не думал что Реон после Игры престолов так падёт.Наверно настолько правдоподобно сыграл роль мерзкого Рамси, что никто не хочет снимать в масштабных фильмах из за ассоциаций.



    Дорогой пользователь! Огромная просьба, поблагодарите релизера, оцените раздачу и оставьте свои комментарий, если Вы скачали Вторжение пришельцев: S.U.M.1 через торрент бесплатно!!
    Комментировать посты могут только пользователи прошедшие не сложную регистрацию
    Показать сообщения:    


    Вторжение пришельцев: S.U.M.1 через торрент
    Скачать бесплатно Вторжение пришельцев: S.U.M.1
    Вторжение пришельцев: S.U.M.1 скачать торрент
    Вторжение пришельцев: S.U.M.1 смотреть онлайн
    Cкачать фильм Вторжение пришельцев: S.U.M.1 бесплатно
    Вторжение пришельцев: S.U.M.1 скачать торрент в хорошем качестве
    Вторжение пришельцев: S.U.M.1 смотреть онлайн бесплатно в хорошем качестве
    Вы не можете начинать темы
    Вы не можете отвечать на сообщения
    Вы не можете редактировать свои сообщения
    Вы не можете удалять свои сообщения
    Вы не можете голосовать в опросах
    Вы не можете прикреплять файлы к сообщениям
    Вы можете скачивать файлы