Ссылка на приватное зеркало всего за 1$. Внимание количество ограничено!!!

OK

1+1

iTunes

мы

OK

1

WEB-DLRip

Джокер

Пифагор

Ведьмак / The Witcher сериал

Лицензия

ПШазам

ОК

Оно 2

iTunes

30
pack

Вам бонус

ВАЖНО

!!Акция!!

Alien_RageХит недели

RePack

Resident Evil 21

ИГРА 18+

pack

RePack

jed

!!Акция!!

Alien_Rage

RePack

fifa19

RePack

Assassins Creed: Odyssey

RePack

NEED FOR SPEED™ PAYBACK

4 сезон

9 сезон

Бесстыжие 9 сезон

Все сериалы

все сериалы на PB.wtf

RePack

FAR CRY 5
  

Хэппи-энд / Happy End (Михаэль Ханеке) [2017, драма, комедия, BDRip 720p] MVO [официальный звук] [Звук с TS] pb.wtf

Хэппи-энд через торрент pb.wtf

Размер: 4.43 GB | Добавлен: 1 год 11 мес. назад | Торрент скачан:31 раз
Скачать  

18-02-2018 21:07 Хэппи-энд Скачать торрент  

Хэппи-энд / Happy EndГод выпуска: 2017
Страна: Франция, Германия, Австрия
Жанр: драма, комедия
Продолжительность: 01:48:29
Перевод: Профессиональный многоголосый - [официальный звук] [Звук с TS]
Субтитры: отсутствуют

Режиссер: Михаэль Ханеке

rating

В ролях:

Изабель Юппер, Жан-Луи Трентиньян, Матьё Кассовиц, Фантина Ардуин, Франц Роговский, Лаура Верлинден, Орелия Пети, Тоби Джонс, Хассам Ганси

Описание:

История большой буржуазной семьи, в которой при видимом благополучии никто никого не любит. А если что-то и роднит этих людей друг с другом, так это желание покончить с собой. Мир, в котором закончилась любовь и образовалась пустота. У них есть все, чтобы быть счастливыми, нет только потребности в этом. Они ничем не отличаются от многих других.

Качество: BDRip 720p
Формат: MKV
Видео кодек: H.264
Аудио кодек: AC3

Видео: 5648 kb/s, 1280x688
Аудио#1: AC3, 2 ch, 192 kbps

скриншот  скриншот  скриншот  

Общее
Уникальный идентификатор : 220248684666865558022611411941875327927 (0xA5B25A8C29207C83824D435B2B4123B7)
Полное имя : D:\Happy.End.2017.Pt.BDRip.72Op_KOSHARA.mkv
Формат : Matroska
Версия формата : Version 2
Размер файла : 4,43 Гбайт
Продолжительность : 1 ч. 48 м.
Режим общего битрейта : Переменный
Общий поток : 5842 Кбит/сек
Дата кодирования : UTC 2018-02-18 16:18:19
Программа кодирования : mkvmerge v8.3.0 ('Over the Horizon') 64bit
Библиотека кодирования : libebml v1.3.1 + libmatroska v1.4.2

Видео
Идентификатор : 1
Формат : AVC
Формат/Информация : Advanced Video Codec
Профиль формата : High@L4.1
Параметр CABAC формата : Да
Параметр ReFrames формата : 4 кадра
Идентификатор кодека : V_MPEG4/ISO/AVC
Продолжительность : 1 ч. 48 м.
Вид битрейта : Переменный
Битрейт : 5648 Кбит/сек
Максимальный битрейт : 6500 Кбит/сек
Ширина : 1280 пикселей
Высота : 688 пикселей
Соотношение сторон : 1,85:1
Режим частоты кадров : Постоянный
Частота кадров : 23,976 (24000/1001) кадра/сек
Стандарт вещания : Component
Цветовое пространство : YUV
Субдискретизация насыщенности : 4:2:0
Битовая глубина : 8 бит
Тип развёртки : Прогрессивная
Бит/(Пиксели*Кадры) : 0.262
Размер потока : 4,19 Гбайт (95%)
Default : Да
Forced : Нет
Цветовой диапазон : Limited
Основные цвета : BT.709
Характеристики трансфера : BT.709
Коэффициенты матрицы : BT.709

Аудио
Идентификатор : 2
Формат : AC-3
Формат/Информация : Audio Coding 3
Расширение режима : CM (complete main)
Параметр Endianness формата : Big
Идентификатор кодека : A_AC3
Продолжительность : 1 ч. 48 м.
Вид битрейта : Постоянный
Битрейт : 192 Кбит/сек
Каналы : 2 канала
Расположение каналов : Front: L R
Частота : 48,0 КГц
Частота кадров : 31,250 кадров/сек (1536 spf)
Метод сжатия : С потерями
Размер потока : 149 Мбайт (3%)
Default : Да
Forced : Нет

pb.wtf



Скачать Хэппи-энд через торрент http://img12.lostpic.net/2018/02/01/f899545145aa6efc9a64fa794d90e661.jpg Скачать фильм Хэппи-энд через торрент бесплантно в хорошем качестве Описание: История большой буржуазной семьи, в которой при видимом благополучии никто никого не любит. А если что-то и роднит этих людей ... 5.5 10 4
Торрент: Зарегистрирован [2018-02-18 21:07] · скачан: 31 раз
Статус: T временная
Размер: 4.43 GB
Как cкачать? Как скачать Хэппи-энд через торрент | qTorrent

% Раздел Тема Автор DL S | L
Фильмы до 2000 г. [ 1.35 GB ] Счастливый конец / Хэппи энд / Šťastný konec / Stastny konec / Happy End [1967 экспериментальный DVDRip] [MVO] killermax2013 Скачать
1 | 0
T Фильмы [HD 720p, 1080p] (Хороший звук DUB, MVO) [ 7.56 GB ] Хэппи-энд / Happy End [2017 BDRip 720p] [MVO] killermax2013 Скачать
1 | 0
T Фильмы 2017 [DVDrip, WEB-DLRip, HDrip] (DUB, MVO) [ 1.45 GB ] Хэппи-энд / Happy End [2017 BDRip-AVC] [MVO] killermax2013 Скачать
1 | 0
T Фильмы (мультфильмы) cо спонсором показа (Новинки AVI/MKV) [ 1.37 GB ] Хэппи-энд / Happy End [2017 HDRip] MVO [официальный звук] [Звук с TS] bober100 Скачать
1 | 0
Зарубежные сериалы [ 5.38 GB ] Хэппи энды / Happy Endings / Сезон: 1 / Серии 1-13 из 13 / [2011 однокамерная WEB-DLRip] DVO KвК 0xiDESK Скачать
1 | 0
Зарубежные сериалы [ 5.38 GB ] Хэппи энды / Счастливый конец / Happy Endings / Сезон: 1 [2011 WEB-DLRip DVO + оригинал] markfiter Скачать
1 | 0
Зарубежные сериалы [ 5.1 GB ] Хэппи Энды Сезон: 2 Серия 1 - 7 из 13 / Happy Endings [2011 WEB-DLRip] ДЕН163 Скачать
1 | 0

28-11-2019 20:33  

Отключить всю рекламу на сайте

    Дорогой пользователь! Огромная просьба, поблагодарите релизера, оцените раздачу и оставьте свои комментарий, если Вы скачали Хэппи-энд через торрент бесплатно! Внесите свою лепту в развитие PiratBit!
    Комментировать посты могут только пользователи прошедшие не сложную регистрацию
    Показать сообщения:    

    Хэппи-энд через торрент
    Скачать бесплатно Хэппи-энд
    Хэппи-энд скачать торрент
    Хэппи-энд смотреть онлайн
    Cкачать фильм Хэппи-энд бесплатно
    Хэппи-энд скачать торрент в хорошем качестве
    Хэппи-энд смотреть онлайн бесплатно в хорошем качестве


    Вы не можете начинать темы
    Вы не можете отвечать на сообщения
    Вы не можете редактировать свои сообщения
    Вы не можете удалять свои сообщения
    Вы не можете голосовать в опросах
    Вы не можете прикреплять файлы к сообщениям
    Вы можете скачивать файлы