Мега распродажа FORZA HORIZON 4 ULTIMATE+ВСЕ DLC+ОНЛАЙН всего за 499р. 349 руб. (супер цена). Внимание количество ограничено!!!

iTunes

1+1

iTunes

мы

iTunes

1

1 сезон

Чернобыль

1 сезон

Ральф против интернета

Лицензия

ПШазам

8 сезон

Игра престолов

Лицензия

30
pack

ВАЖНО

!!Акция!!

Alien_RageХит недели

RePack

Resident Evil 21

ИГРА 18+

pack

RePack

Metro:Exodus

!!Акция!!

Alien_Rage

RePack

fifa19

RePack

Assassins Creed: Odyssey

RePack

NEED FOR SPEED™ PAYBACK

3 сезон

9 сезон

Бесстыжие 9 сезон

Все сериалы

все сериалы на PB.wtf

RePack

FAR CRY 5
Ребята, катастрофически не хватает 2730р. для оплаты серверов за ИЮНЬ (всвязи с блокировками трафик упал в 3 раза), 1-2р., выручайте.
  

С Богами: Два мира / Прогулка с Богами / Singwa hamkke / Singwa hamgge / Along with the Gods: The Two Worlds (Ким Ён-хва) [2017, драма, фэнтези, приключения, HDTVRip 1080p] DVO [Ворон и Wenlana] pb.wtf

С Богами: Два мира через торрент pb.wtf

Раздают: 2 [ 0 KB/s ]
Размер: 5.44 GB | Добавлен: 8 мес. назад | Торрент скачан:79 раз
Скачать  

19-02-2018 09:36 С Богами: Два мира Скачать торрент  

С Богами: Два мира / Прогулка с Богами / Singwa hamkke / Singwa hamgge / Along with the Gods: The Two Worlds

Год выпуска: 2017
Страна: Корея Южная
Жанр: драма, фэнтези, приключения
Продолжительность: 02:19:45
Перевод: Любительский двухголосый [Ворон и Wenlana]
Примечание: Релиз без рекламы
Субтитры: русские (форсированные (надписи)), русские (Перевод - [Фансаб-группа Zipper])
Режиссер: Ким Ён-хва
В ролях:

Чха Тхэ-хён (Kim Ja-hong), Ха Джон-у (Kang-rim), Чу Джи-хун (Seaman Mac), Ким Хян-ги (Lee Deok-choon), Ким Дон-ук (Kim Soo-hong), О Даль-су (Judge 1), Лим Вон-хи (Judge 2), То Гён-су (Private Won), Ли Джун-хёк (First lieutenant Park), Е Су-джон (Ja-hong's mother), Чан Гван (God of Violence Hell), Чон Хэ-гюн (God of Murder Hell)
Описание:
Спасая ребёнка из горящего здания, пожарный Ким Джа-хон погибает героической смертью. И тут же три ангела смерти сопровождают его в мир мёртвых, где смертному предстоит пройти 7 судов и держать ответ перед 7-ю Богами. Ангелы будут его защитниками, и если Джа-хона признают безгрешным, он получит возможность реинкарнироваться и начать новую жизнь.
Перевод осуществляла команда фансаб-группы "Zipper"
Перевод, Редакция и тайпсет: Yo_Jelly, FireQueen
Озвучивание: Ворон и Wenlana
Смотреть обязательно с форсированными субтитрами на надписи!
Прежде чем качать видео и комментировать, скачайте сэмпл и послушайте!
Формат субтитров: [форсированный(надписи) / полные]softsub (ass)
Субтитры выложены с разрешения фансаб-группы "Zipper"
Озвучено с разрешения фансаб-группы "Zipper"
HDTVRip от Batafurai Team и SOUND-GROUP

Рейтинг:
rating
Качество: HDTVRip 1080p
Формат: MKV
Видео: AVC, 1920x1080 (16:9), 5120 kbps, 23,976 fps, 0,103 bpp
Аудио №1: русский / AC3 / 2.0 / 48 kHz / 224 kbps / |DVO|
Аудио №2: корейский / AC3 / 2.0 / 48 kHz / 224 kbps /

General
Unique ID : 249121054467710049859982365188351390547 (0xBB6AF8489798921FA7C3977CA290F353)
Complete name : E:\Along.With.the.Gods.The.Two.Worlds.2017.1080p.HDTVRip.RU.KO.[Batafurai team_&_SOUND-GROUP].mkv
Format : Matroska
Format version : Version 4 / Version 2
File size : 5.44 GiB
Duration : 2 h 19 min
Overall bit rate : 5 574 kb/s
Encoded date : UTC 2018-02-17 19:52:31
Writing application : mkvmerge v8.2.0 ('World of Adventure') 32bit
Writing library : libebml v1.3.1 + libmatroska v1.4.2
Attachments : ARIALN.TTF / ARIALNB.TTF / Arsenal-Bold.otf / calibrib.ttf / calibriz.ttf

Video
ID : 1
Format : AVC
Format/Info : Advanced Video Codec
Format profile : High@L4
Format settings, CABAC : Yes
Format settings, ReFrames : 4 frames
Format settings, GOP : M=4, N=23
Codec ID : V_MPEG4/ISO/AVC
Duration : 2 h 19 min
Bit rate : 5 120 kb/s
Width : 1 920 pixels
Height : 1 080 pixels
Display aspect ratio : 16:9
Frame rate mode : Constant
Frame rate : 23.976 (24000/1001) FPS
Color space : YUV
Chroma subsampling : 4:2:0
Bit depth : 8 bits
Scan type : Progressive
Bits/(Pixel*Frame) : 0.103
Stream size : 4.90 GiB (90%)
Writing library : x264 core 148 r2768 d32d7bf
Encoding settings : cabac=1 / ref=3 / deblock=1:0:0 / analyse=0x3:0x113 / me=hex / subme=8 / psy=1 / psy_rd=1.00:0.00 / mixed_ref=1 / me_range=16 / chroma_me=1 / trellis=2 / 8x8dct=1 / cqm=0 / deadzone=21,11 / fast_pskip=1 / chroma_qp_offset=-2 / threads=24 / lookahead_threads=4 / sliced_threads=0 / nr=0 / decimate=1 / interlaced=0 / bluray_compat=0 / stitchable=1 / constrained_intra=0 / bframes=3 / b_pyramid=2 / b_adapt=1 / b_bias=0 / direct=3 / weightb=1 / open_gop=0 / weightp=2 / keyint=23 / keyint_min=12 / scenecut=40 / intra_refresh=0 / rc_lookahead=23 / rc=2pass / mbtree=1 / bitrate=5120 / ratetol=1.0 / qcomp=0.60 / qpmin=0 / qpmax=69 / qpstep=4 / cplxblur=20.0 / qblur=0.5 / ip_ratio=1.40 / aq=1:1.00
Default : Yes
Forced : No

Audio #1
ID : 2
Format : AC-3
Format/Info : Audio Coding 3
Mode extension : CM (complete main)
Format settings, Endianness : Big
Codec ID : A_AC3
Duration : 2 h 19 min
Bit rate mode : Constant
Bit rate : 224 kb/s
Channel(s) : 2 channels
Channel positions : Front: L R
Sampling rate : 48.0 kHz
Frame rate : 31.250 FPS (1536 spf)
Compression mode : Lossy
Stream size : 224 MiB (4%)
Title : Ворон и Wenlana
Language : Russian
Default : Yes
Forced : No

Audio #2
ID : 3
Format : AC-3
Format/Info : Audio Coding 3
Mode extension : CM (complete main)
Format settings, Endianness : Big
Codec ID : A_AC3
Duration : 2 h 19 min
Bit rate mode : Constant
Bit rate : 224 kb/s
Channel(s) : 2 channels
Channel positions : Front: L R
Sampling rate : 48.0 kHz
Frame rate : 31.250 FPS (1536 spf)
Compression mode : Lossy
Stream size : 224 MiB (4%)
Title : Original
Language : Korean
Default : No
Forced : No

Text #1
ID : 4
Format : ASS
Codec ID : S_TEXT/ASS
Codec ID/Info : Advanced Sub Station Alpha
Compression mode : Lossless
Title : форсированный(надписи)
Language : Russian
Default : Yes
Forced : Yes

Text #2
ID : 5
Format : ASS
Codec ID : S_TEXT/ASS
Codec ID/Info : Advanced Sub Station Alpha
Compression mode : Lossless
Title : Перевод - [Фансаб-группа Zipper]
Language : Russian
Default : No
Forced : No
pb.wtf



Скачать С Богами: Два мира через торрент http://i3.imageban.ru/out/2018/02/19/4eb506d192304d126be960ace0075940.jpg Скачать фильм С Богами: Два мира через торрент бесплантно в хорошем качестве Описание: Спасая ребёнка из горящего здания, пожарный Ким Джа-хон погибает героической смертью. И тут же три ангела смерти сопровождают его ... 9.8 10 8
Info! Золотая раздача, скачанное не засчитывается.
Торрент: Зарегистрирован [2018-11-03 08:17] · скачан: 79 раз
Статус: √ проверено
Размер: 5.44 GB
Как cкачать? Как скачать С Богами: Два мира через торрент | qTorrent


>> Регистрируемся здесь <<






Отзывы и комментарии о схеме читаем и пишем здесь: ---> Отзывы и комментарии о схеме

Новые благодарочки в телеграм довольных пользователей:
скриншот   скриншот   скриншот   скриншот   скриншот

16-02-2019 11:57 С Богами: Два мира Скачать торрент  

Достойный кинчик особенно от корейцев. Начало скучновато но концовка супер. Один из лучших фильмов что я видел. К просмотру всем обязательно!pb.wtf



20-04-2019 15:46 С Богами: Два мира Скачать торрент  

обратите внимание, 2 часть:
С Богами: Последние 49 днейpb.wtf



    Дорогой пользователь! Огромная просьба, поблагодарите релизера, оцените раздачу и оставьте свои комментарий, если Вы скачали С Богами: Два мира через торрент бесплатно! Внесите свою лепту в развитие PiratBit!
    Комментировать посты могут только пользователи прошедшие не сложную регистрацию
    Показать сообщения:    

    С Богами: Два мира через торрент
    Скачать бесплатно С Богами: Два мира
    С Богами: Два мира скачать торрент
    С Богами: Два мира смотреть онлайн
    Cкачать фильм С Богами: Два мира бесплатно
    С Богами: Два мира скачать торрент в хорошем качестве
    С Богами: Два мира смотреть онлайн бесплатно в хорошем качестве


    Вы не можете начинать темы
    Вы не можете отвечать на сообщения
    Вы не можете редактировать свои сообщения
    Вы не можете удалять свои сообщения
    Вы не можете голосовать в опросах
    Вы не можете прикреплять файлы к сообщениям
    Вы можете скачивать файлы