Ссылка на приватное зеркало нашего сайта всего за 1$. Внимание количество ограничено!!!

2 сезон

iTunes

1 сезон

1

iTunes

iTunes

iTunes

1 сезон

RePack

30

ИГРА 18+

pack

ВАЖНО

!!Акция!!

Alien_RageХит недели

RePack

MK11
pack

Забери бонус

RePack

jed

!!Акция!!

Alien_Rage

RePack

fifa19

RePack

Assassins Creed: Odyssey

RePack

NEED FOR SPEED™ PAYBACK

4 сезон

9 сезон

Бесстыжие 9 сезон

Все сериалы

все сериалы на PB.wtf

RePack

FAR CRY 5
  

Вольная грамота / Серия 1 - 18 из 18 (Дмитрий Черкасов) [2018 г., Мелодрама, исторический, SATRip] pb.wtf

Вольная грамота через торрент pb.wtf

Размер: 12.4 GB | Добавлен: 2 года 7 мес. назад | Торрент скачан:98 раз
Скачать  

19-02-2018 12:25 Вольная грамота Скачать торрент  

Вольная грамота / Серия 1-18 из 18
Год выпуска: 2018
Страна: Россия
Жанр: Мелодрама, исторический
Продолжительность: 18 х 00:47:16
Субтитры: нет

Режиссер: Дмитрий Черкасов

В ролях: Татьяна Бабенкова, Артём Крылов, Владислав Абашин, Иван Добронравов, Ксения Разина, Артём Ткаченко, Владислав Ветров, Катарина Шпиринг, Иван Шибанов, Анна Лутцева, Александра Власова, Александр Обласов, Николай Качура, Сергей Барковский, Мария Сокова, Максим Онищенко

Описание: Полина Лебедева, воспитанница бездетного князя Алексея Петровича Головина - самая завидная невеста Ямбургского уезда. Во время бала в честь её именин Алексей Петрович умирает от внезапного сердечного приступа. Это горе – лишь начало тяжёлых испытаний, уготованных девушке судьбой. Полина числится крепостной. Образованная, воспитанная как подобает барышне, она вместе с другими крепостными становится собственностью непутёвого племянника покойного, игрока и пропойцы Сергея Головина. Тот, чтобы покрыть карточные долги, спешно продаёт имение со всем имуществом и крепостными душами соседу и давнему врагу дяди – графу Кречетскому. Уездное общество смотрит теперь на Полину с презрением, жених предаёт, а новый хозяин настойчиво добивается близости...

Качество: SATRip
Формат: AVI
Видео кодек: XviD
Аудио кодек: MP3
Видео: 704x448 (1.57:1), 25 fps, XviD build 50 ~1800 kbps
Аудио#1: 48 kHz, MPEG Layer 3, 2 ch, ~128.00 kbps
скриншот   скриншот   скриншот   скриншот   скриншот  

General
Complete name : H:\релизы.торрентфайл\Вольная грамота(2018)\Volnaja.gramota.SATRip.01.[www.riperam.org].avi
Format : AVI
Format/Info : Audio Video Interleave
File size : 757 MiB
Duration : 53mn 8s
Overall bit rate : 1 993 Kbps

Video
ID : 0
Format : MPEG-4 Visual
Format profile : Advanced Simple@L5
Format settings, BVOP : 2
Format settings, QPel : No
Format settings, GMC : No warppoints
Format settings, Matrix : Default (H.263)
Codec ID : XVID
Codec ID/Hint : XviD
Duration : 53mn 8s
Bit rate : 1 851 Kbps
Width : 704 pixels
Height : 448 pixels
Display aspect ratio : 1.571
Frame rate : 25.000 fps
Color space : YUV
Chroma subsampling : 4:2:0
Bit depth : 8 bits
Scan type : Progressive
Compression mode : Lossy
Bits/(Pixel*Frame) : 0.235
Stream size : 704 MiB (93%)
Writing library : XviD 1.2.1 (UTC 2008-12-04)

Audio
ID : 1
Format : MPEG Audio
Format version : Version 1
Format profile : Layer 3
Mode : Joint stereo
Mode extension : MS Stereo
Codec ID : 55
Codec ID/Hint : MP3
Duration : 53mn 7s
Bit rate mode : Constant
Bit rate : 128 Kbps
Channel(s) : 2 channels
Sampling rate : 48.0 KHz
Compression mode : Lossy
Stream size : 48.6 MiB (6%)
Alignment : Aligned on interleaves
Interleave, duration : 24 ms (0.60 video frame)
Writing library : LAME3.99r
Encoding settings : -m j -V 4 -q 9 -lowpass 17 -b 128

Внимание! Раздача ведётся путём добавления новых серий; при каждом добавлении создётся новый торрент. Чтобы начать докачку новой серии, пользователям необходимо сделать следующее:
  • Остановить скачивание,
  • Удалить старый торрент у себя из клиента (старые серии удалять не надо),
  • Скачать новый торрент и запустить его у себя в клиенте вместо старого, при этом указать клиенту путь в старую папку куда и должно происходить скачивание новых серий.
Ваш клиент при этом должен произвести хеширование (проверку) старой папки (если не производит сам - помогите ему сделать это), и будет докачивать только те серии которых у вас ещё нет. Старые серии при этом не удаляются, а продолжают раздаваться!

Eсли вы уже удалили старые серии, то предотвратить повторную закачку старых серий можно, отжав галочку в соответсвующих местах при запуске нового торрента. По возможности, желательно не удалять старые серии как можно дольше чтобы релизёр не столько продолжал раздавать старые серии, а смог сконцентрироваться на новых.
pb.wtf



Скачать Вольная грамота через торрент http://img12.lostpic.net/2018/02/19/bf585200d1d485ce9e8c8c511209bc80.jpg Скачать фильм Вольная грамота через торрент бесплантно в хорошем качестве Описание: Полина Лебедева, воспитанница бездетного князя Алексея Петровича Головина - самая завидная невеста Ямбургского уезда. Во время ... 10 10 18
Info! Золотая раздача, скачанное не засчитывается.
Торрент: Зарегистрирован [2018-03-02 14:58] · скачан: 98 раз
Статус: √ проверено
Размер: 12.4 GB
Как cкачать? Как скачать Вольная грамота через торрент | qTorrent

% Раздел Тема Автор DL S | L
Наши сериалы [ 45.87 GB ] Вольная грамота / Сезон: 1 / Серии: 1-18 из 18 [2018 История HDTV 1080i] bober100 Скачать
1 | 0
Наши сериалы [ 23.96 GB ] Вольная грамота / Сезон: 1 / Серии: 1-18 из 18 [2018 История HDTVRip 720p] bober100 Скачать
1 | 0
Наши сериалы [ 14.24 GB ] Вольная грамота / Сезон 1 / Серии 1-18 из 18 [2018 История HDTVRip-AVC ] bober100 Скачать
1 | 0
Наши сериалы [ 21.62 GB ] Вольная грамота / Сезон: 1 / Серии: 1-18 из 18 [2018 История WEB-DL 720p] bober100 Скачать
1 | 0
Наши сериалы [ 11 GB ] Вольная грамота / Серии: 1-18 из 18 [2018 история SATRip-AVC] aleksan55 Скачать
1 | 0
Наши сериалы [ 12.98 GB ] Вольная грамота / Сезон 1 / Серии 1-18 из 18 [2018 История HDTVRip] bober100 Скачать
1 | 0


Последний раз редактировалось: oleg8 (2018-03-02 14:58), всего редактировалось 9 раз(а)

28-11-2019 20:33  

Отключить всю рекламу на сайте

19-02-2018 12:26 Вольная грамота Скачать торрент  

У меня только наш хостинг не работает?или нет.pb.wtf



20-02-2018 15:06 Вольная грамота Скачать торрент  

Добавлена 3-4 с.pb.wtf



21-02-2018 14:59 Вольная грамота Скачать торрент  

Добавил 5-6 серии.pb.wtf



22-02-2018 12:25 Вольная грамота Скачать торрент  

Рабыня, понимаете ли, наша Изаура))pb.wtf



26-02-2018 22:55 Вольная грамота Скачать торрент  

добавил 7-8 с.pb.wtf



27-02-2018 13:57 Вольная грамота Скачать торрент  

Добавленна 9-10 серии.pb.wtf



28-02-2018 13:56 Вольная грамота Скачать торрент  

Добавил 11-12 серии.pb.wtf



02-03-2018 15:03 Вольная грамота Скачать торрент  

Добавил 16-18 серии.pb.wtf



    Дорогой пользователь! Огромная просьба, поблагодарите релизера, оцените раздачу и оставьте свои комментарий, если Вы скачали Вольная грамота через торрент бесплатно! Внесите свою лепту в развитие PiratBit!
    Комментировать посты могут только пользователи прошедшие не сложную регистрацию
    Показать сообщения:    

    Вольная грамота через торрент
    Скачать бесплатно Вольная грамота
    Вольная грамота скачать торрент
    Вольная грамота смотреть онлайн
    Cкачать фильм Вольная грамота бесплатно
    Вольная грамота скачать торрент в хорошем качестве
    Вольная грамота смотреть онлайн бесплатно в хорошем качестве


    Вы не можете начинать темы
    Вы не можете отвечать на сообщения
    Вы не можете редактировать свои сообщения
    Вы не можете удалять свои сообщения
    Вы не можете голосовать в опросах
    Вы не можете прикреплять файлы к сообщениям
    Вы можете скачивать файлы